<?xml version="1.0" standalone="no"?>
<!DOCTYPE svg PUBLIC "-//W3C//DTD SVG 1.1//EN" "http://www.w3.org/Graphics/SVG/1.1/DTD/svg11.dtd" >
<svg xmlns="http://www.w3.org/2000/svg" xmlns:xlink="http://www.w3.org/1999/xlink" version="1.1">
<metadata>
(c) 2020 Braille Institute of America, Inc., a 501(c)(3) Charitable Organization. BrailleInstitute.org.
Designed by Elliott Scott, Megan Eiswerth, Linus Boman and Theodore Petrosky at Applied Design Works.
</metadata>
<defs>
<font id="AtkinsonHyperlegible-Regular" horiz-adv-x="539" >
  <font-face 
    font-family="Atkinson Hyperlegible"
    font-weight="400"
    font-stretch="normal"
    units-per-em="1000"
    panose-1="0 0 0 0 0 0 0 0 0 0"
    ascent="800"
    descent="-200"
    x-height="495"
    cap-height="668"
    bbox="-58 -251 1290 886"
    underline-thickness="57"
    underline-position="-162"
    unicode-range="U+000D-2215"
  />
<missing-glyph horiz-adv-x="527" 
d="M50 700h427v-700h-427v700zM449 21l-185 308l-185 -308h370zM251 350l-180 300v-601zM457 652l-181 -302l181 -303v605zM449 680h-371l185 -309z" />
    <glyph glyph-name=".notdef" horiz-adv-x="527" 
d="M50 700h427v-700h-427v700zM449 21l-185 308l-185 -308h370zM251 350l-180 300v-601zM457 652l-181 -302l181 -303v605zM449 680h-371l185 -309z" />
    <glyph glyph-name=".null" horiz-adv-x="0" 
 />
    <glyph glyph-name="uni000D" unicode="&#xd;" horiz-adv-x="0" 
 />
    <glyph glyph-name="space" unicode=" " horiz-adv-x="280" 
 />
    <glyph glyph-name="exclam" unicode="!" horiz-adv-x="281" 
d="M96 496v172h89v-172l-18 -301h-53zM76 52q0 27 19 46t45 19q27 0 46 -19t19 -46q0 -26 -19 -45t-46 -19q-26 0 -45 19t-19 45z" />
    <glyph glyph-name="quotedbl" unicode="&#x22;" horiz-adv-x="301" 
d="M261 668l-14 -221h-52l-14 221h80zM40 668h80l-14 -221h-52z" />
    <glyph glyph-name="numbersign" unicode="#" horiz-adv-x="655" 
d="M49 253h124l23 162h-124l11 81h124l24 172h82l-24 -172h123l24 172h82l-24 -172h123l-11 -81h-124l-22 -162h123l-11 -81h-124l-24 -172h-82l24 172h-123l-24 -172h-82l25 172h-124zM255 253h123l22 162h-123z" />
    <glyph glyph-name="dollar" unicode="$" horiz-adv-x="594" 
d="M127 172q34 -89 140 -103v239l-36 7q-34 7 -67.5 20.5t-59 35.5t-41.5 53.5t-16 73.5q0 44 20 77t51.5 55t70.5 34t78 15v63h50v-63q67 -5 122 -34.5t84 -89.5l-86 -25q-20 32 -52.5 48t-67.5 21v-213l12 -3q38 -10 78 -22.5t72.5 -34t53.5 -54.5t21 -84q0 -47 -19.5 -83
t-52 -61.5t-75.5 -39.5t-90 -16v-75h-50v76q-87 8 -144.5 49t-82.5 108zM317 68q67 4 103.5 34.5t36.5 77.5q0 52 -39 77.5t-101 39.5v-229zM252 401l15 -3v202q-19 -2 -41 -8t-40.5 -17.5t-30.5 -29t-12 -42.5q0 -45 31 -69t78 -33z" />
    <glyph glyph-name="percent" unicode="%" horiz-adv-x="927" 
d="M526 170q0 38 14 71t39 57.5t58 39t71 14.5t70.5 -14.5t57.5 -39t39 -57.5t14 -71t-14 -71t-39 -58t-57.5 -39t-70.5 -14t-71 14t-58 39t-39 58t-14 71zM220 680q38 0 70.5 -14t57.5 -39t39 -58t14 -71q0 -37 -14 -70t-39 -58t-57.5 -39t-70.5 -14t-71 14t-58 39t-39 58
t-14 70q0 38 14 71t39 58t58 39t71 14zM186 0l468 668h88l-468 -668h-88zM112 498q0 -45 31.5 -76t76.5 -31t76 31t31 76q0 23 -8.5 42.5t-23 34t-34 23t-41.5 8.5q-45 0 -76.5 -31.5t-31.5 -76.5zM600 170q0 -22 8.5 -41.5t23 -34.5t34.5 -23.5t42 -8.5q45 0 76 31.5
t31 76.5t-31 76t-76 31q-22 0 -42 -8.5t-34.5 -23t-23 -34t-8.5 -41.5z" />
    <glyph glyph-name="ampersand" unicode="&#x26;" horiz-adv-x="705" 
d="M209 387q-34 38 -54 75t-20 76q0 66 51 104t131 38q31 0 62 -7.5t56 -24t40.5 -44t15.5 -68.5q0 -63 -39 -105t-101 -68l136 -144q13 31 22 66t12 76h87q-5 -54 -20 -106.5t-42 -97.5l149 -157h-119l-82 87q-44 -46 -101.5 -72.5t-129.5 -26.5q-52 0 -93.5 15t-71 41.5
t-45 62t-15.5 76.5q0 77 46.5 127.5t124.5 76.5zM263 62q53 0 97.5 21t79.5 60l-181 191q-60 -21 -95.5 -56t-35.5 -91q0 -29 11 -52t30 -39.5t43 -25t51 -8.5zM300 415q49 18 79 47t30 69q0 41 -26.5 58t-63.5 17t-65.5 -16t-28.5 -50q0 -21 10 -41t23 -37t25.5 -29.5
t16.5 -17.5z" />
    <glyph glyph-name="quotesingle" unicode="'" horiz-adv-x="160" 
d="M40 668h80l-14 -221h-52z" />
    <glyph glyph-name="parenleft" unicode="(" horiz-adv-x="300" 
d="M50 280q0 103 27 201.5t83 186.5h75q-50 -71 -80.5 -172.5t-30.5 -217.5q0 -110 32.5 -223t108.5 -216h-76q-69 98 -104 211t-35 230z" />
    <glyph glyph-name="parenright" unicode=")" horiz-adv-x="300" 
d="M35 -161q76 103 109 216.5t33 223.5q0 115 -30.5 216.5t-80.5 172.5h75q56 -88 82.5 -186.5t26.5 -200.5q0 -118 -34.5 -231t-103.5 -211h-77z" />
    <glyph glyph-name="asterisk" unicode="*" horiz-adv-x="433" 
d="M169 508l-101 32l18 55l101 -33v106h57v-106l101 33l18 -55l-102 -32l63 -86l-46 -34l-63 86l-62 -86l-46 34z" />
    <glyph glyph-name="plus" unicode="+" horiz-adv-x="602" 
d="M53 208v80h208v208h80v-208h208v-80h-208v-208h-80v208h-208z" />
    <glyph glyph-name="comma" unicode="," horiz-adv-x="205" 
d="M38 53q0 26 19 45t45 19q27 0 46 -19t19 -45q0 -12 -5 -25l-62 -161h-55l47 122q-23 4 -38.5 22t-15.5 42z" />
    <glyph glyph-name="hyphen" unicode="-" horiz-adv-x="368" 
d="M38 289h292v-81h-292v81z" />
    <glyph glyph-name="period" unicode="." horiz-adv-x="205" 
d="M38 52q0 27 19 46t45 19q27 0 46 -19t19 -46q0 -26 -19 -45t-46 -19q-26 0 -45 19t-19 45z" />
    <glyph glyph-name="slash" unicode="/" horiz-adv-x="377" 
d="M275 668h87l-260 -668h-87z" />
    <glyph glyph-name="zero" unicode="0" horiz-adv-x="648" 
d="M60 335q0 168 67 256.5t197 88.5t197 -88.5t67 -256.5q0 -169 -67 -258t-197 -89t-197 89t-67 258zM151 335q0 -132 42 -202.5t131 -70.5q69 0 111 45l-264 379q-11 -31 -15.5 -68.5t-4.5 -82.5zM217 566l263 -376q17 60 17 145q0 131 -42.5 201t-130.5 70
q-65 0 -107 -40z" />
    <glyph glyph-name="one" unicode="1" horiz-adv-x="402" 
d="M42 504v67q36 0 68.5 3.5t59.5 14t47 29.5t31 50h56v-668h-84v504h-178z" />
    <glyph glyph-name="two" unicode="2" horiz-adv-x="549" 
d="M34 0v75q89 65 158.5 122t117.5 108.5t73 98t25 90.5q0 52 -32.5 84t-92.5 32q-48 0 -88 -25.5t-52 -86.5l-84 24q18 73 77.5 115.5t148.5 42.5q46 0 85 -11.5t67 -34t44 -55t16 -74.5q0 -58 -28.5 -113t-76.5 -108.5t-111.5 -104.5t-133.5 -102h368v-77h-481z" />
    <glyph glyph-name="three" unicode="3" horiz-adv-x="574" 
d="M42 151l83 24q11 -53 47.5 -85t100.5 -32q66 0 108.5 33t42.5 96q0 48 -24.5 74t-58.5 37.5t-68.5 13.5t-54.5 2v76q28 0 61 2.5t61.5 13.5t47.5 33.5t19 61.5q0 54 -38 81.5t-92 27.5q-62 0 -97.5 -31t-45.5 -81l-82 24q18 72 76 115t151 43q44 0 83 -9t68.5 -29.5
t47 -52.5t17.5 -79q0 -51 -28 -92t-81 -63q38 -12 62.5 -29.5t39 -39.5t20.5 -47t6 -51q0 -51 -20 -88.5t-53.5 -62t-77 -37t-91.5 -12.5q-51 0 -90 12.5t-67 34.5t-46 52t-27 64z" />
    <glyph glyph-name="four" unicode="4" horiz-adv-x="614" 
d="M38 244l331 424h85v-424h122v-79h-122v-165h-84v165h-332v79zM370 244v309l-241 -309h241z" />
    <glyph glyph-name="five" unicode="5" horiz-adv-x="583" 
d="M54 151l82 24q12 -55 47 -86t101 -31q30 0 57 10.5t47.5 31t32.5 50.5t12 69q0 42 -13.5 72t-34.5 49.5t-48 28.5t-54 9q-52 0 -85 -24.5t-44 -49.5l-82 24l41 340h383v-81h-315l-23 -187q26 26 64 38t80 12q44 0 83.5 -15.5t69.5 -44.5t48 -72t18 -98
q0 -57 -19.5 -100.5t-52.5 -73t-75.5 -44t-89.5 -14.5q-51 0 -89.5 13t-66.5 35t-46.5 51.5t-27.5 63.5z" />
    <glyph glyph-name="six" unicode="6" horiz-adv-x="598" 
d="M60 310q0 71 13.5 137.5t44.5 118.5t80.5 83t122.5 31q75 0 120.5 -31t67.5 -76l-85 -25q-15 29 -44 45.5t-69 16.5q-39 0 -69 -18.5t-50.5 -52.5t-31.5 -81.5t-13 -105.5q23 39 66 66t110 27q47 0 86 -16.5t68 -46.5t45 -72t16 -92q0 -46 -16.5 -88t-47.5 -73.5t-74 -50
t-97 -18.5q-126 0 -184.5 83.5t-58.5 238.5zM303 59q66 0 105.5 43.5t39.5 112.5t-39.5 112.5t-105.5 43.5q-67 0 -106.5 -43.5t-39.5 -112.5t39.5 -112.5t106.5 -43.5z" />
    <glyph glyph-name="seven" unicode="7" horiz-adv-x="510" 
d="M383 587h-368v81h461v-81l-278 -587h-105z" />
    <glyph glyph-name="eight" unicode="8" horiz-adv-x="615" 
d="M60 188q0 65 33.5 110t89.5 68q-26 25 -41.5 59t-15.5 74q0 38 14 70.5t39 57.5t58 39t70 14q38 0 71 -14t58 -39t39 -57.5t14 -70.5q0 -40 -15.5 -74t-41.5 -59q56 -23 89.5 -68t33.5 -110q0 -48 -19 -85t-52.5 -62.5t-78.5 -39t-98 -13.5q-52 0 -97 13.5t-78.5 39
t-52.5 62.5t-19 85zM151 188q0 -59 42 -92.5t114 -33.5t114.5 33.5t42.5 92.5t-42.5 94t-114.5 35t-114 -35t-42 -94zM307 391q45 0 76 31.5t31 77.5q0 45 -31 75.5t-76 30.5t-76 -30.5t-31 -75.5q0 -46 31 -77.5t76 -31.5z" />
    <glyph glyph-name="nine" unicode="9" horiz-adv-x="598" 
d="M60 441q0 49 18.5 92.5t51 75.5t76 51t93.5 19t93.5 -18.5t76 -51t51 -76t18.5 -94.5q0 -46 -18 -91q-5 -12 -23 -47t-45 -83t-62 -105t-73 -113h-104q24 34 49 69q21 31 45.5 67.5t44.5 70.5q-25 -6 -53 -6q-49 0 -92.5 19t-76 51.5t-51.5 76.5t-19 93zM299 287
q32 0 60.5 12t49.5 33t33 49t12 60t-12 59.5t-33 48.5t-49.5 33t-60.5 12t-60 -12t-48.5 -33t-32.5 -48.5t-12 -59.5t12 -60t32.5 -49t48.5 -33t60 -12z" />
    <glyph glyph-name="colon" unicode=":" horiz-adv-x="205" 
d="M38 440q0 26 19 45t45 19q27 0 46 -19t19 -45q0 -27 -19 -46t-46 -19q-26 0 -45 19t-19 46zM102 117q27 0 46 -19t19 -46q0 -26 -19 -45t-46 -19q-26 0 -45 19t-19 45q0 27 19 46t45 19z" />
    <glyph glyph-name="semicolon" unicode=";" horiz-adv-x="205" 
d="M38 53q0 26 19 45t45 19q27 0 46 -19t19 -45q0 -12 -5 -25l-62 -161h-55l47 122q-23 4 -38.5 22t-15.5 42zM38 440q0 26 19 45t45 19q27 0 46 -19t19 -45q0 -27 -19 -46t-46 -19q-26 0 -45 19t-19 46z" />
    <glyph glyph-name="less" unicode="&#x3c;" horiz-adv-x="553" 
d="M40 213v70l473 213v-90l-368 -158l368 -158v-90z" />
    <glyph glyph-name="equal" unicode="=" horiz-adv-x="602" 
d="M53 386h496v-79h-496v79zM549 200v-79h-496v79h496z" />
    <glyph glyph-name="greater" unicode="&#x3e;" horiz-adv-x="553" 
d="M513 283v-70l-473 -213v90l368 158l-368 158v90z" />
    <glyph glyph-name="question" unicode="?" horiz-adv-x="520" 
d="M40 524q15 72 75 114t146 42q39 0 76.5 -9.5t67 -30t47.5 -51.5t18 -73q0 -32 -10.5 -60t-28 -51t-40 -42.5t-46.5 -34.5q-21 -14 -36 -24.5t-24 -22t-13 -25t-4 -32.5v-34h-86v37q0 29 7 51t21 40t35.5 34.5t50.5 34.5q36 23 61 51.5t25 69.5q0 48 -35 75t-90 27
q-34 0 -58 -9.5t-40 -25.5t-25 -35t-12 -39zM162 52q0 27 19 46t46 19t45.5 -19.5t18.5 -45.5q0 -27 -18.5 -45.5t-45.5 -18.5q-25 0 -45 17.5t-20 46.5z" />
    <glyph glyph-name="at" unicode="@" horiz-adv-x="780" 
d="M396 680q57 0 116 -21t107.5 -61t79.5 -98.5t31 -133.5q0 -58 -14 -98.5t-36 -65.5t-50 -36t-55 -11q-35 0 -63.5 16t-38.5 42q-24 -29 -54.5 -43.5t-61.5 -14.5q-27 0 -52 10.5t-44.5 31t-31 51t-11.5 70.5q0 57 16.5 95.5t43.5 62t62.5 33.5t72.5 10q30 0 60.5 -5.5
t58.5 -14.5v-226q0 -22 12.5 -33t30.5 -11q26 0 44 13.5t29 33.5t15.5 44.5t4.5 45.5q0 51 -21.5 97t-58 80.5t-86 54.5t-106.5 20q-58 0 -110 -22t-90.5 -60.5t-61 -90t-22.5 -110.5q0 -64 24 -116.5t63.5 -90t90.5 -58.5t106 -21q72 0 136 36v-69q-32 -14 -66 -21t-68 -7
q-66 0 -129 25t-111.5 70.5t-78 109.5t-29.5 142q0 71 27 134t74 110t110 74t135 27zM369 229q29 0 55.5 27.5t26.5 81.5v103q-11 2 -22 3t-23 1q-19 0 -37.5 -5t-33.5 -19.5t-24 -40.5t-9 -67q0 -43 20.5 -63.5t46.5 -20.5z" />
    <glyph glyph-name="A" unicode="A" horiz-adv-x="626" 
d="M261 669h105l250 -669h-100l-51 146h-304l-51 -146h-100zM190 227h246l-123 347z" />
    <glyph glyph-name="B" unicode="B" horiz-adv-x="619" 
d="M76 668h269q54 0 93.5 -14t64.5 -37t37 -53t12 -62q0 -40 -18 -79t-52 -68q50 -26 74.5 -70.5t24.5 -92.5q0 -36 -14 -70.5t-41.5 -61.5t-68.5 -43.5t-96 -16.5h-285v668zM170 308v-229h201q28 0 49 10t35.5 26.5t21.5 37t7 42.5q0 21 -7 41.5t-21.5 36.5t-35.5 25.5
t-50 9.5h-200zM170 589v-207h185q26 0 45 9t31.5 23t19 32.5t6.5 37.5q0 39 -26 72t-76 33h-185z" />
    <glyph glyph-name="C" unicode="C" horiz-adv-x="656" 
d="M361 680q85 0 151.5 -39t101.5 -112l-82 -30q-23 45 -66.5 73.5t-109.5 28.5q-44 0 -82.5 -17t-67 -50.5t-44.5 -83.5t-16 -115q0 -63 15.5 -112.5t44 -84t67.5 -53t86 -18.5q66 0 110 28t67 74l82 -30q-36 -75 -106 -113t-159 -38q-72 0 -128 25.5t-95 71.5t-59.5 110
t-20.5 140q0 78 22 141.5t62.5 109t98 70t128.5 24.5z" />
    <glyph glyph-name="D" unicode="D" horiz-adv-x="673" 
d="M76 668h182q80 0 146.5 -16.5t115.5 -55t76 -102.5t27 -159q0 -96 -27 -160.5t-76 -103t-115.5 -55t-146.5 -16.5h-182v668zM170 589v-510h86q52 0 100.5 8t86.5 34.5t61 77.5t23 136t-23 135t-61 76.5t-86.5 34.5t-100.5 8h-86z" />
    <glyph glyph-name="E" unicode="E" horiz-adv-x="567" 
d="M76 0v668h453v-81h-359v-203h265v-81h-265v-222h359v-81h-453z" />
    <glyph glyph-name="F" unicode="F" horiz-adv-x="548" 
d="M76 0v668h434v-81h-340v-203h340v-81h-340v-303h-94z" />
    <glyph glyph-name="G" unicode="G" horiz-adv-x="710" 
d="M361 680q85 0 152 -39t102 -112l-83 -30q-23 45 -66.5 73.5t-109.5 28.5q-44 0 -82.5 -17t-67 -50.5t-44.5 -83.5t-16 -115q0 -63 15.5 -112.5t43 -84t66.5 -53t85 -18.5q33 0 68 8t63.5 28t47 53.5t18.5 85.5v22h-195v81h284v-345h-54l-25 84q-32 -51 -87.5 -73.5
t-123.5 -22.5q-72 0 -128 25.5t-95 71.5t-59 110t-20 140q0 78 22 141.5t62.5 109t98 70t128.5 24.5z" />
    <glyph glyph-name="H" unicode="H" horiz-adv-x="690" 
d="M76 0v668h94v-284h350v284h94v-668h-94v303h-350v-303h-94z" />
    <glyph glyph-name="I" unicode="I" horiz-adv-x="414" 
d="M66 594v74h282v-74h-94v-520h94v-74h-282v74h94v520h-94z" />
    <glyph glyph-name="J" unicode="J" horiz-adv-x="510" 
d="M102 214q-2 -76 34.5 -112.5t87.5 -36.5q20 0 41 6t37.5 22.5t27 45.5t10.5 74v455h94v-456q0 -110 -55.5 -167t-154.5 -57q-94 0 -149 50.5t-60 150.5z" />
    <glyph glyph-name="K" unicode="K" horiz-adv-x="627" 
d="M76 0v668h94v-336l301 336h117l-255 -279l284 -389h-115l-232 320l-100 -110v-210h-94z" />
    <glyph glyph-name="L" unicode="L" 
d="M76 668h94v-587h359v-81h-453v668z" />
    <glyph glyph-name="M" unicode="M" horiz-adv-x="820" 
d="M76 0v668h156l178 -546l178 546h156v-668h-94v570l-193 -570h-93l-194 570v-570h-94z" />
    <glyph glyph-name="N" unicode="N" horiz-adv-x="689" 
d="M76 0v668h139l304 -568v568h94v-668h-138l-305 571v-571h-94z" />
    <glyph glyph-name="O" unicode="O" horiz-adv-x="727" 
d="M50 335q0 75 22 138.5t62.5 109.5t98.5 71.5t130 25.5t130.5 -25.5t99 -71.5t62.5 -109.5t22 -138.5q0 -76 -22 -139.5t-62.5 -109.5t-99 -72t-130.5 -26t-130 26t-98.5 72t-62.5 109.5t-22 139.5zM146 335q0 -65 17 -115t46 -84t69 -51.5t85 -17.5q46 0 85.5 17.5
t69 51.5t46.5 84t17 115t-17 114.5t-46.5 83t-69 51t-85.5 17.5q-45 0 -85 -17.5t-69 -51t-46 -83t-17 -114.5z" />
    <glyph glyph-name="P" unicode="P" horiz-adv-x="601" 
d="M76 668h209q61 0 112 -8.5t88 -31t57.5 -61.5t20.5 -101t-20.5 -101t-57.5 -61t-88 -30t-112 -8h-115v-265h-94v667zM170 589v-242h123q36 0 68 3.5t55.5 15.5t37 35.5t13.5 64.5t-13.5 65.5t-37 37t-55.5 16.5t-68 4h-123z" />
    <glyph glyph-name="Q" unicode="Q" horiz-adv-x="753" 
d="M363 680q72 0 130.5 -25.5t99 -71.5t62.5 -109.5t22 -138.5q0 -57 -12 -105.5t-35 -90.5l123 -115l-64 -68l-117 109q-39 -37 -92 -57t-117 -20q-72 0 -130 26t-98.5 72t-62.5 109.5t-22 139.5q0 75 22 138.5t62.5 109.5t98.5 71.5t130 25.5zM363 67q42 0 79 15t66 44
l-179 168l64 68l166 -156q22 57 22 129q0 65 -17 114.5t-46.5 83t-69 51t-85.5 17.5q-45 0 -85 -17.5t-69 -51t-46 -83t-17 -114.5t17 -115t46 -84t69 -51.5t85 -17.5z" />
    <glyph glyph-name="R" unicode="R" horiz-adv-x="618" 
d="M288 668q61 0 112 -7.5t88 -28.5t57.5 -58.5t20.5 -97.5q0 -34 -7 -64.5t-27.5 -55.5t-56.5 -42.5t-94 -25.5l207 -288h-115l-203 281h-100v-281h-94v668h212zM170 360h125q37 0 69 3.5t55.5 15t37 34t13.5 61.5t-13.5 61.5t-37 34.5t-55.5 15.5t-69 3.5h-125v-229z" />
    <glyph glyph-name="S" unicode="S" horiz-adv-x="596" 
d="M127 172q9 -27 26.5 -47t41 -32.5t51 -19t54.5 -6.5q30 0 58.5 7.5t50 22t35 37t13.5 52.5q0 45 -38 71t-133 45q-39 8 -81 19.5t-77.5 33t-58.5 56.5t-23 90q0 42 21 75.5t55.5 56.5t78.5 35t90 12q71 0 135.5 -30t96.5 -95l-86 -25q-20 35 -62 53t-88 18
q-27 0 -53 -6.5t-46.5 -19.5t-32.5 -32.5t-12 -45.5q0 -28 14 -46t38 -30t55 -20t65 -15q44 -9 87 -22t77 -35t55.5 -57.5t21.5 -89.5q0 -46 -22 -82.5t-58.5 -61t-83.5 -37.5t-96 -13q-41 0 -81.5 9.5t-75 29t-60.5 49.5t-39 70z" />
    <glyph glyph-name="T" unicode="T" horiz-adv-x="558" 
d="M10 668h538v-81h-222v-587h-94v587h-222v81z" />
    <glyph glyph-name="U" unicode="U" horiz-adv-x="690" 
d="M170 668v-396q0 -99 39.5 -151t135.5 -52t135.5 52t39.5 151v396h94v-389q0 -146 -61.5 -218.5t-207.5 -72.5q-145 0 -207 72.5t-62 218.5v389h94z" />
    <glyph glyph-name="V" unicode="V" horiz-adv-x="589" 
d="M10 668h103l181 -558l182 558h103l-230 -668h-110z" />
    <glyph glyph-name="W" unicode="W" horiz-adv-x="840" 
d="M10 668h103l130 -552l122 552h110l122 -552l130 552h103l-167 -668h-114l-129 552l-129 -552h-113z" />
    <glyph glyph-name="X" unicode="X" horiz-adv-x="623" 
d="M255 344l-231 324h112l175 -245l175 245h113l-231 -324l245 -344h-113l-189 265l-188 -265h-113z" />
    <glyph glyph-name="Y" unicode="Y" horiz-adv-x="595" 
d="M10 668h103l185 -323l184 323h103l-240 -409v-259h-94v259z" />
    <glyph glyph-name="Z" unicode="Z" horiz-adv-x="607" 
d="M44 81l394 506h-379v81h489v-81l-392 -506h407v-81h-519v81z" />
    <glyph glyph-name="bracketleft" unicode="[" horiz-adv-x="315" 
d="M76 -161v829h206v-74h-125v-681h125v-74h-206z" />
    <glyph glyph-name="backslash" unicode="\" horiz-adv-x="377" 
d="M15 668h87l260 -668h-87z" />
    <glyph glyph-name="bracketright" unicode="]" horiz-adv-x="315" 
d="M239 668v-829h-206v74h125v681h-125v74h206z" />
    <glyph glyph-name="asciicircum" unicode="^" horiz-adv-x="552" 
d="M53 311l185 357h76l185 -357h-89l-134 258l-134 -258h-89z" />
    <glyph glyph-name="underscore" unicode="_" horiz-adv-x="396" 
d="M10 0h376v-79h-376v79z" />
    <glyph glyph-name="grave" unicode="`" horiz-adv-x="268" 
d="M91 707q8 0 16 -3t15 -12l93 -121h-70q-20 16 -40.5 33.5t-34.5 31.5q-11 11 -14 18.5t-3 14.5q0 16 11 27t27 11z" />
    <glyph glyph-name="a" unicode="a" horiz-adv-x="526" 
d="M373 306q2 63 -25 97t-87 34q-45 0 -73.5 -20.5t-36.5 -56.5l-81 24q20 57 71.5 88.5t118.5 31.5q103 0 149.5 -48t47.5 -153l1 -116q1 -63 5.5 -107.5t11.5 -79.5h-77l-20 68q-23 -38 -63 -59t-106 -21q-35 0 -66 9.5t-54.5 28t-37 45t-13.5 60.5q0 44 24 74t67.5 49.5
t105.5 31t138 20.5zM131 133q0 -35 25.5 -56.5t70.5 -21.5q29 0 56.5 7.5t49 25t34.5 47t13 73.5v31q-57 -6 -103 -13.5t-78.5 -19.5t-50 -29.5t-17.5 -43.5z" />
    <glyph glyph-name="b" unicode="b" horiz-adv-x="566" 
d="M70 668h84v-250q23 39 62.5 62.5t98.5 23.5q42 0 81 -17.5t68 -50.5t46.5 -81t17.5 -109t-17.5 -109t-46.5 -81t-68 -50.5t-81 -17.5q-59 0 -98.5 23.5t-62.5 63.5l-22 -75h-62v668zM293 60q64 0 102.5 48.5t38.5 137.5t-38.5 137.5t-102.5 48.5t-102.5 -48.5
t-38.5 -137.5t38.5 -137.5t102.5 -48.5z" />
    <glyph glyph-name="c" unicode="c" horiz-adv-x="500" 
d="M278 504q67 0 115 -33t72 -79l-77 -28q-17 30 -47.5 48t-68.5 18q-28 0 -54 -11t-45.5 -33.5t-31.5 -57t-12 -81.5t12 -81.5t32 -57.5t45.5 -34.5t53.5 -11.5q41 0 71 18.5t47 46.5l77 -28q-28 -48 -80 -79.5t-118 -31.5q-53 0 -96 19t-73 53.5t-46 82t-16 103.5t17 103
t48 81.5t75.5 54t99.5 19.5z" />
    <glyph glyph-name="d" unicode="d" horiz-adv-x="564" 
d="M251 504q59 0 98.5 -23.5t62.5 -62.5v250h84v-481q0 -25 2 -73t15 -114h-79l-22 75q-23 -40 -62.5 -63.5t-98.5 -23.5q-42 0 -81 17.5t-68 50.5t-46.5 81t-17.5 109t17.5 109t46.5 81t68 50.5t81 17.5zM132 246q0 -89 38.5 -137.5t102.5 -48.5t102.5 48.5t38.5 137.5
t-38.5 137.5t-102.5 48.5t-102.5 -48.5t-38.5 -137.5z" />
    <glyph glyph-name="e" unicode="e" 
d="M279 504q59 0 104 -23.5t74.5 -62.5t43 -89.5t9.5 -103.5h-382q2 -47 17.5 -78.5t38 -50t48.5 -26.5t49 -8q42 0 70.5 13t45.5 36l81 -24q-27 -44 -77 -71.5t-120 -27.5q-58 0 -103.5 20t-76.5 55t-47 82t-16 102q0 59 18.5 106.5t51 81t76.5 51.5t95 18zM421 292
q0 26 -10 51.5t-28.5 45t-44.5 31.5t-59 12q-28 0 -54 -8t-46 -24.5t-33.5 -43t-16.5 -64.5h292z" />
    <glyph glyph-name="f" unicode="f" horiz-adv-x="311" 
d="M15 429v67h84v74q0 38 5 64t19.5 42t40.5 23t68 7h54v-71h-52q-32 0 -41.5 -13t-9.5 -51v-75h103v-67h-103v-429h-84v429h-84z" />
    <glyph glyph-name="g" unicode="g" horiz-adv-x="560" 
d="M248 504q60 0 97.5 -23.5t60.5 -62.5l23 78h61v-449q0 -37 -2.5 -70.5t-14.5 -62.5t-36.5 -52t-67.5 -38q-45 -16 -95 -16q-30 0 -60.5 6.5t-56.5 20.5t-46 36t-30 53l84 23q14 -39 46 -52t63 -13q19 0 34 3t22 5q46 15 61 46t15 92v66q-23 -39 -60.5 -62t-97.5 -23
q-41 0 -79 16t-67 47.5t-46.5 77.5t-17.5 106t17.5 106t46.5 77.5t67 48t79 16.5zM129 256q0 -85 39 -131t101 -46q28 0 53.5 10t44.5 31.5t30.5 55t11.5 80.5t-11.5 80.5t-30.5 54.5t-44.5 31t-53.5 10q-62 0 -101 -45.5t-39 -130.5z" />
    <glyph glyph-name="h" unicode="h" horiz-adv-x="546" 
d="M154 668v-247q21 35 59 59t101 24q90 0 127 -52.5t37 -137.5v-314h-84v289q0 29 -3.5 54.5t-15 45.5t-33 31.5t-57.5 11.5q-61 0 -96 -41.5t-35 -121.5v-269h-84v668h84z" />
    <glyph glyph-name="i" unicode="i" horiz-adv-x="278" 
d="M45 496h153v-496h-84v429h-69v67zM94 653q0 26 18 44t44 18t44.5 -18t18.5 -44t-18.5 -44.5t-44.5 -18.5t-44 18.5t-18 44.5z" />
    <glyph glyph-name="j" unicode="j" horiz-adv-x="254" 
d="M-58 -159v73q14 -1 25 -1h22q32 0 51.5 3.5t30.5 14.5t15 30t4 51v484h84v-489q0 -48 -8.5 -80.5t-28.5 -52t-54.5 -27.5t-85.5 -8q-13 0 -26.5 0.5t-28.5 1.5zM69 653q0 26 18.5 44t44.5 18t44 -18t18 -44t-18 -44.5t-44 -18.5t-44.5 18.5t-18.5 44.5z" />
    <glyph glyph-name="k" unicode="k" horiz-adv-x="490" 
d="M70 0v668h84v-395l200 223h101l-187 -205l212 -291h-103l-165 229l-58 -63v-166h-84z" />
    <glyph glyph-name="l" unicode="l" horiz-adv-x="239" 
d="M70 124v543h84v-529q0 -38 8 -51t43 -13h19v-74h-37q-36 0 -58.5 5t-35.5 18.5t-18 37.5t-5 63z" />
    <glyph glyph-name="m" unicode="m" horiz-adv-x="841" 
d="M70 496h62l22 -75q21 35 57 59t92 24q57 0 91.5 -23t51.5 -64q30 46 72.5 66.5t94.5 20.5q86 0 123 -52.5t37 -137.5v-314h-84v289q0 29 -3.5 54.5t-15 45.5t-32 31.5t-55.5 11.5q-54 0 -86.5 -41.5t-32.5 -121.5v-269h-84v289q0 29 -4 54.5t-15 45.5t-32 31.5t-55 11.5
q-54 0 -87 -41.5t-33 -121.5v-269h-84v496z" />
    <glyph glyph-name="n" unicode="n" horiz-adv-x="546" 
d="M132 496l22 -75q21 35 59 59t101 24q90 0 127 -52.5t37 -137.5v-314h-84v289q0 29 -3.5 54.5t-15 45.5t-33 31.5t-57.5 11.5q-61 0 -96 -41.5t-35 -121.5v-269h-84v496h62z" />
    <glyph glyph-name="o" unicode="o" horiz-adv-x="552" 
d="M38 246q0 67 21 116t55 80.5t76.5 46.5t85.5 15t85.5 -15t76.5 -46.5t55 -80.5t21 -116t-21 -116t-55 -80.5t-76.5 -46.5t-85.5 -15t-85.5 15t-76.5 46.5t-55 80.5t-21 116zM128 246q0 -48 13 -82.5t34 -57t47.5 -33.5t53.5 -11t53.5 11t47.5 33.5t34 57t13 82.5t-13 83
t-34 57.5t-47.5 33t-53.5 10.5t-53.5 -10.5t-47.5 -33t-34 -57.5t-13 -83z" />
    <glyph glyph-name="p" unicode="p" horiz-adv-x="566" 
d="M70 496h61l23 -78q23 39 62.5 62.5t98.5 23.5q42 0 81 -17t68 -50t46.5 -81t17.5 -110q0 -61 -17.5 -109t-46.5 -81t-68 -50.5t-81 -17.5q-59 0 -98.5 23.5t-62.5 63.5v-236h-84v657zM293 60q64 0 102.5 48.5t38.5 137.5t-38.5 137.5t-102.5 48.5t-102.5 -48.5
t-38.5 -137.5t38.5 -137.5t102.5 -48.5z" />
    <glyph glyph-name="q" unicode="q" horiz-adv-x="576" 
d="M38 246q0 62 17 110t46.5 81t68 50t80.5 17q60 0 99.5 -23.5t62.5 -62.5l23 78h61v-520q0 -27 16.5 -48.5t54.5 -21.5q26 0 61 13v-78q-20 -6 -41.5 -10t-43.5 -4q-25 0 -49 7t-42 23.5t-29 44.5t-11 71v102q-23 -40 -62.5 -63.5t-99.5 -23.5q-42 0 -80.5 17.5t-68 50.5
t-46.5 81t-17 109zM273 60q64 0 102.5 48.5t38.5 137.5t-38.5 137.5t-102.5 48.5q-65 0 -103.5 -48.5t-38.5 -137.5t38.5 -137.5t103.5 -48.5z" />
    <glyph glyph-name="r" unicode="r" horiz-adv-x="340" 
d="M70 496h61l27 -92q26 45 70 72.5t107 27.5v-87q-102 0 -141.5 -52.5t-39.5 -151.5v-213h-84v496z" />
    <glyph glyph-name="s" unicode="s" horiz-adv-x="471" 
d="M112 142q11 -44 48.5 -63.5t78.5 -19.5q22 0 43 5t37.5 15t26.5 23.5t10 30.5q0 34 -23.5 51t-58.5 26.5t-75.5 16.5t-75.5 21.5t-58.5 42t-23.5 76.5q0 33 16.5 59t43 43.5t61 26.5t70.5 9q59 0 111 -24.5t75 -76.5l-79 -29q-13 30 -45.5 44.5t-67.5 14.5q-38 0 -69 -17
t-31 -49q0 -30 23.5 -44t58.5 -22.5t75.5 -15.5t75.5 -23t58.5 -45t23.5 -82q0 -35 -17 -62.5t-45.5 -46.5t-64.5 -29t-75 -10q-32 0 -64 7.5t-60 22.5t-50 38.5t-34 55.5z" />
    <glyph glyph-name="t" unicode="t" horiz-adv-x="324" 
d="M104 496v125h84v-125h96v-67h-96v-291q0 -38 7.5 -51t43.5 -13h45v-74h-63q-36 0 -58.5 5t-35.5 18.5t-18 37.5t-5 63v305h-84v67h84z" />
    <glyph glyph-name="u" unicode="u" horiz-adv-x="536" 
d="M68 497h84v-292q0 -29 3.5 -55t14.5 -45.5t31.5 -31t54.5 -11.5q60 0 93 41t33 121v273h84v-497h-63l-21 72q-21 -36 -57 -60t-98 -24q-43 0 -73.5 14t-49.5 39.5t-27.5 61t-8.5 77.5v317z" />
    <glyph glyph-name="v" unicode="v" horiz-adv-x="441" 
d="M0 496h91l130 -386l129 386h91l-177 -496h-87z" />
    <glyph glyph-name="w" unicode="w" horiz-adv-x="654" 
d="M0 496h90l95 -367l99 367h87l98 -367l95 367h90l-142 -496h-77l-108 399l-108 -399h-76z" />
    <glyph glyph-name="x" unicode="x" horiz-adv-x="461" 
d="M181 255l-172 241h99l122 -172l123 172h99l-172 -241l181 -255h-99l-132 185l-131 -185h-99z" />
    <glyph glyph-name="y" unicode="y" horiz-adv-x="429" 
d="M93 495l122 -382l122 382h92l-176 -517q-13 -40 -26.5 -67t-32 -43t-45.5 -22.5t-69 -6.5h-43v74h34q27 0 44 2.5t28.5 11.5t19 26t16.5 46l-179 496h93z" />
    <glyph glyph-name="z" unicode="z" horiz-adv-x="460" 
d="M40 74l285 348h-276v74h371v-74l-285 -348h295v-74h-390v74z" />
    <glyph glyph-name="braceleft" unicode="{" horiz-adv-x="319" 
d="M38 220v67q23 0 37 7t21.5 19.5t9.5 30t2 38.5v150q0 39 5 65t20 41.5t41 22.5t68 7h43v-71h-42q-33 0 -42 -13t-9 -51v-153q0 -63 -21.5 -90t-57.5 -37q36 -10 57.5 -36t21.5 -90v-153q0 -39 9 -51.5t42 -12.5h42v-71h-43q-42 0 -68 7t-41 22.5t-20 41.5t-5 65v150
q0 21 -2 38.5t-9.5 30t-21.5 19.5t-37 7z" />
    <glyph glyph-name="bar" unicode="|" horiz-adv-x="233" 
d="M76 668h81v-829h-81v829z" />
    <glyph glyph-name="braceright" unicode="}" horiz-adv-x="319" 
d="M34 597v71h43q42 0 68 -7t41 -22.5t20 -41.5t5 -65v-150q0 -43 12 -69t58 -26v-67q-46 0 -58 -26t-12 -69v-150q0 -39 -5 -65t-20 -41.5t-41 -22.5t-68 -7h-43v71h41q34 0 43 12.5t9 51.5v153q0 64 21.5 90t56.5 36q-35 10 -56.5 37t-21.5 90v153q0 38 -9 51t-43 13h-41z
" />
    <glyph glyph-name="asciitilde" unicode="~" horiz-adv-x="555" 
d="M40 221q11 46 47 74t90 28q31 0 59 -8.5t53 -19t47 -19t42 -8.5q23 0 40.5 12.5t22.5 38.5l74 -22q-11 -46 -46.5 -74t-89.5 -28q-27 0 -53 8.5t-51.5 18.5t-49 18.5t-46.5 8.5q-25 0 -42 -12.5t-22 -37.5z" />
    <glyph glyph-name="uni00A0" unicode="&#xa0;" horiz-adv-x="280" 
 />
    <glyph glyph-name="exclamdown" unicode="&#xa1;" horiz-adv-x="281" 
d="M96 -161v172l18 300h53l18 -300v-172h-89zM76 454q0 27 19 46t45 19q27 0 46 -19t19 -46q0 -26 -19 -45t-46 -19q-26 0 -45 19t-19 45z" />
    <glyph glyph-name="cent" unicode="&#xa2;" horiz-adv-x="500" 
d="M38 247q0 50 14 93t39.5 76.5t62 55.5t82.5 29v70h50v-67q65 -2 110.5 -34.5t68.5 -76.5l-77 -28q-15 27 -41.5 44t-60.5 21v-368q36 4 62.5 21.5t41.5 43.5l77 -28q-26 -45 -73 -75.5t-108 -35.5v-75h-50v77q-46 6 -83 27.5t-62.5 55t-39 78t-13.5 96.5zM129 248
q0 -79 31 -123.5t76 -57.5v358q-45 -12 -76 -55.5t-31 -121.5z" />
    <glyph glyph-name="sterling" unicode="&#xa3;" horiz-adv-x="586" 
d="M156 369q-17 34 -30.5 68.5t-13.5 73.5q0 46 19.5 78t51 52.5t71 29.5t79.5 9q85 0 139 -37.5t74 -101.5l-83 -25q-14 52 -50.5 72.5t-83.5 20.5q-21 0 -44 -5t-41.5 -16.5t-30.5 -31t-12 -48.5q0 -36 15.5 -70t32.5 -69h204v-51h-181q10 -22 14 -42t4 -38
q0 -51 -27.5 -87.5t-68.5 -60.5q17 7 31.5 9.5t28.5 2.5q22 0 41.5 -5.5t39 -12.5t40.5 -12.5t47 -5.5q23 0 49.5 5.5t59.5 19.5l25 -73q-38 -17 -68.5 -23.5t-56.5 -6.5q-28 0 -52 6t-47 13t-46.5 13t-50.5 6t-59.5 -8.5t-74.5 -29.5l-28 67q14 6 36 19t42.5 34t35.5 50.5
t15 67.5q0 43 -23 92h-109v51h86z" />
    <glyph glyph-name="currency" unicode="&#xa4;" horiz-adv-x="580" 
d="M53 119l66 66q-47 61 -47 136q0 36 12 71t35 64l-66 66l36 36l66 -66q30 24 64.5 35.5t70.5 11.5t71 -11.5t64 -35.5l66 66l36 -36l-66 -66q24 -29 35.5 -64t11.5 -71t-11.5 -71t-35.5 -65l66 -66l-36 -35l-66 65q-29 -23 -64 -34.5t-71 -11.5t-70.5 11.5t-64.5 34.5
l-66 -65zM290 178q30 0 55.5 11t45 30.5t30.5 45.5t11 56q0 29 -11 55t-30.5 45.5t-45 30.5t-55.5 11t-55.5 -11t-45 -30.5t-30.5 -45.5t-11 -55q0 -30 11 -56t30.5 -45.5t45 -30.5t55.5 -11z" />
    <glyph glyph-name="yen" unicode="&#xa5;" horiz-adv-x="595" 
d="M113 668l185 -323l184 323h103l-232 -394h141v-51h-149v-86h149v-51h-149v-86h-94v86h-150v51h150v86h-150v51h141l-232 394h103z" />
    <glyph glyph-name="brokenbar" unicode="&#xa6;" horiz-adv-x="233" 
d="M76 668h81v-310h-81v310zM157 149v-310h-81v310h81z" />
    <glyph glyph-name="section" unicode="&#xa7;" horiz-adv-x="530" 
d="M151 424q-29 20 -52 50.5t-23 75.5q0 33 15.5 57t41 40.5t58 24.5t66.5 8q69 0 115.5 -28.5t66.5 -77.5l-81 -24q-12 32 -40.5 46t-64.5 14q-37 0 -64 -14t-27 -44q0 -4 0.5 -7.5t1.5 -8.5q4 -23 30.5 -43t64 -39t79.5 -39.5t78 -45.5t60 -56t24 -71q0 -54 -34 -92.5
t-81 -58.5q29 -23 46.5 -49.5t17.5 -64.5q0 -37 -15 -65t-40.5 -47t-60 -28.5t-72.5 -9.5q-75 0 -125.5 34t-68.5 95l83 24q10 -39 36.5 -61t76.5 -22q44 0 72 17t28 50q0 32 -24.5 56t-61.5 44.5t-80 40.5t-80 45t-61.5 58.5t-24.5 80.5q0 50 35.5 84t84.5 51zM115 294
q0 -28 15.5 -47.5t43.5 -36.5t66 -35.5t83 -45.5q34 14 63.5 38t29.5 59q0 29 -18.5 50.5t-47 39.5t-64 34.5t-68.5 36.5q-18 -5 -36.5 -13.5t-33 -20.5t-24 -26.5t-9.5 -32.5z" />
    <glyph glyph-name="dieresis" unicode="&#xa8;" horiz-adv-x="425" 
d="M53 644q0 22 15.5 37.5t38.5 15.5t38.5 -15.5t15.5 -37.5q0 -23 -15.5 -38.5t-38.5 -15.5t-38.5 15.5t-15.5 38.5zM318 697q23 0 38.5 -15.5t15.5 -37.5q0 -23 -15.5 -38.5t-38.5 -15.5q-22 0 -37.5 15.5t-15.5 38.5q0 22 15.5 37.5t37.5 15.5z" />
    <glyph glyph-name="copyright" unicode="&#xa9;" horiz-adv-x="798" 
d="M53 334q0 72 27 135t74 110t110 74t135 27t135 -27t110 -74t74 -110t27 -135t-27 -135t-74 -110t-110 -74t-135 -27t-135 27t-110 74t-74 110t-27 135zM115 334q0 -59 22.5 -110.5t61 -90t90 -61t110.5 -22.5t110.5 22.5t90 61t61 90t22.5 110.5t-22.5 110.5t-61 90
t-90 61t-110.5 22.5t-110.5 -22.5t-90 -61t-61 -90t-22.5 -110.5zM403 531q54 0 90 -23t55 -59l-67 -25q-26 49 -80 49q-43 0 -70.5 -32t-27.5 -99q0 -68 27.5 -100.5t70.5 -32.5q25 0 47 10t36 35l66 -24q-20 -34 -56.5 -57t-92.5 -23q-85 0 -129.5 51t-44.5 141
q0 89 47.5 139t128.5 50z" />
    <glyph glyph-name="ordfeminine" unicode="&#xaa;" horiz-adv-x="371" 
d="M239 578q0 12 -1 23.5t-6.5 21t-16 15t-29.5 5.5q-22 0 -37 -8.5t-20 -27.5l-61 18q11 30 42 48.5t79 18.5q24 0 45 -5.5t37.5 -19.5t26 -36.5t9.5 -57.5v-82q0 -23 3 -44t8 -44h-58l-12 39q-13 -25 -41 -35t-55 -10q-46 0 -72.5 22.5t-26.5 58.5q0 28 15.5 46t41 29
t59 16.5t70.5 8.5zM123 483q0 -17 13 -26t36 -9q35 0 51 20.5t16 50.5v11q-67 -8 -91.5 -17.5t-24.5 -29.5z" />
    <glyph glyph-name="guillemotleft" unicode="&#xab;" horiz-adv-x="562" 
d="M409 461h100l-150 -210l150 -211h-100l-147 211zM201 461h99l-149 -210l149 -211h-99l-148 211z" />
    <glyph glyph-name="logicalnot" unicode="&#xac;" horiz-adv-x="602" 
d="M53 396h496v-306h-81v227h-415v79z" />
    <glyph glyph-name="registered" unicode="&#xae;" horiz-adv-x="798" 
d="M399 680q72 0 135 -27t110 -74.5t74 -110.5t27 -135q0 -71 -27 -134t-74 -110t-110 -74t-135 -27t-135 27t-110 74t-74 110t-27 134q0 72 27 135t74 110.5t110 74.5t135 27zM399 49q59 0 110.5 22.5t90 61t61 90.5t22.5 110q0 59 -22.5 111t-61 91t-90 61.5t-110.5 22.5
t-110.5 -22.5t-90 -61.5t-61 -91t-22.5 -111q0 -58 22.5 -110t61 -90.5t90 -61t110.5 -22.5zM264 162v368h112q41 0 73 -4.5t54.5 -17t34.5 -35.5t12 -59q0 -12 -3 -26.5t-12.5 -29t-26.5 -27t-46 -20.5l108 -149h-86l-102 139h-42v-139h-76zM340 469v-110h53q43 0 62 14
t19 40q0 34 -24 45t-62 11h-48z" />
    <glyph glyph-name="macron" unicode="&#xaf;" horiz-adv-x="382" 
d="M53 668h276v-67h-276v67z" />
    <glyph glyph-name="degree" unicode="&#xb0;" horiz-adv-x="352" 
d="M40 544q0 28 10.5 53t29 43.5t43.5 29t53 10.5t53 -10.5t43.5 -29t29 -43.5t10.5 -53t-10.5 -53t-29 -43.5t-43.5 -29t-53 -10.5t-53 10.5t-43.5 29t-29 43.5t-10.5 53zM103 544q0 -30 21.5 -51.5t51.5 -21.5q31 0 52 21.5t21 51.5q0 31 -21 52t-52 21q-30 0 -51.5 -21
t-21.5 -52z" />
    <glyph glyph-name="plusminus" unicode="&#xb1;" horiz-adv-x="579" 
d="M53 270v79h197v147h79v-147h197v-79h-197v-146h-79v146h-197zM526 79v-79h-473v79h473z" />
    <glyph glyph-name="twosuperior" unicode="&#xb2;" horiz-adv-x="382" 
d="M53 403v55q93 73 145 125t52 99q0 26 -15.5 40t-41.5 14q-23 0 -41.5 -13.5t-22.5 -45.5l-64 18q11 42 45 66.5t86 24.5q53 0 88.5 -26t35.5 -74q0 -56 -49 -110.5t-137 -114.5h195v-58h-276z" />
    <glyph glyph-name="threesuperior" unicode="&#xb3;" horiz-adv-x="383" 
d="M53 486l62 18q8 -23 25 -39.5t48 -16.5t52 16t21 45q0 26 -12.5 39t-30 18.5t-36.5 5.5h-31v54h27t33.5 5t28.5 17t12 35q0 28 -19 40.5t-43 12.5q-55 0 -71 -53l-61 18q13 40 48 62.5t88 22.5q23 0 46 -6t41 -18t29 -31t11 -46t-15 -49t-38 -34q31 -12 46.5 -37
t15.5 -54t-11.5 -50.5t-31.5 -35.5t-45.5 -21t-54.5 -7q-54 0 -87.5 25.5t-46.5 63.5z" />
    <glyph glyph-name="acute" unicode="&#xb4;" horiz-adv-x="268" 
d="M53 571q3 4 16 21t28.5 37t30 39t21.5 26q10 13 28 13q16 0 27 -11t11 -27q0 -12 -13 -28q-5 -7 -17.5 -18l-25 -22t-23.5 -19.5t-13 -10.5h-70z" />
    <glyph glyph-name="paragraph" unicode="&#xb6;" horiz-adv-x="508" 
d="M38 479q0 39 15 73.5t40.5 60t60 40.5t73.5 15h256v-67h-40v-762h-81v762h-94v-762h-81v455q-64 14 -106.5 65t-42.5 120z" />
    <glyph glyph-name="periodcentered" unicode="&#xb7;" horiz-adv-x="235" 
d="M53 248q0 26 19 45t45 19q27 0 46 -19t19 -45q0 -27 -19 -46t-46 -19q-26 0 -45 19t-19 46z" />
    <glyph glyph-name="cedilla" unicode="&#xb8;" horiz-adv-x="291" 
d="M87 -126q32 -14 58 -14t38.5 11t12.5 23q0 10 -8.5 17.5t-27.5 7.5q-11 0 -31 -5q-14 -4 -21 3t-7 16q0 5 3 10l51 82l34 -21l-30 -49q8 2 15.5 3t14.5 1q35 0 52 -18.5t17 -42.5q0 -29 -24 -54t-73 -25q-39 0 -88 20z" />
    <glyph glyph-name="onesuperior" unicode="&#xb9;" horiz-adv-x="256" 
d="M53 683v47q33 0 58.5 10.5t35.5 38.5h56v-376h-67v280h-83z" />
    <glyph glyph-name="ordmasculine" unicode="&#xba;" horiz-adv-x="381" 
d="M57 545q0 38 11.5 65.5t30.5 45.5t43.5 27t51.5 9t51.5 -9t44 -27t31 -45.5t11.5 -65.5q0 -37 -11.5 -65t-31 -46t-44 -27t-51.5 -9t-51.5 9t-43.5 27t-30.5 46t-11.5 65zM126 545q0 -45 19.5 -69t48.5 -24q30 0 49.5 24t19.5 69t-19.5 69t-49.5 24q-29 0 -48.5 -24
t-19.5 -69z" />
    <glyph glyph-name="guillemotright" unicode="&#xbb;" horiz-adv-x="562" 
d="M53 461h100l147 -210l-147 -211h-100l149 211zM361 461l148 -210l-148 -211h-99l149 211l-149 210h99z" />
    <glyph glyph-name="onequarter" unicode="&#xbc;" horiz-adv-x="826" 
d="M455 86v54l186 236h67v-233h65v-57h-65v-86h-68v86h-185zM115 0l468 668h88l-467 -668h-89zM53 619q33 0 58.5 10t35.5 39h57v-376h-68v279h-83v48zM640 143v146l-112 -146h112z" />
    <glyph glyph-name="onehalf" unicode="&#xbd;" horiz-adv-x="812" 
d="M583 668h88l-468 -668h-88zM681 278q0 26 -15.5 40t-41.5 14q-23 0 -41.5 -13.5t-23.5 -45.5l-64 19q11 42 45.5 66t86.5 24q53 0 88.5 -25.5t35.5 -73.5q0 -57 -49 -111t-137 -114h194v-58h-275v54q92 74 144.5 125.5t52.5 98.5zM53 619q33 0 58.5 10t35.5 39h56v-376
h-67v279h-83v48z" />
    <glyph glyph-name="threequarters" unicode="&#xbe;" horiz-adv-x="868" 
d="M497 86v54l186 236h68v-233h64v-57h-64v-86h-69v86h-185zM157 0l469 668h88l-469 -668h-88zM53 380l62 18q8 -24 25 -40t48 -16t52 16t21 45q0 26 -12.5 39t-30 18.5t-36.5 5.5h-31v53h27t33.5 5t28.5 17t12 35q0 27 -19 40t-43 13q-29 0 -46 -14t-25 -39l-61 18
q13 40 48 63t88 23q23 0 46 -6t41 -18.5t29 -31.5t11 -46q0 -28 -15 -49.5t-38 -33.5q31 -11 46.5 -36t15.5 -54t-11.5 -50.5t-31.5 -35.5t-45.5 -21t-54.5 -7q-54 0 -87.5 25.5t-46.5 63.5zM682 143v146l-112 -146h112z" />
    <glyph glyph-name="questiondown" unicode="&#xbf;" horiz-adv-x="520" 
d="M174 179q22 14 37 25t24 22t13 24.5t4 32.5v34h86v-36q0 -29 -7 -51t-21.5 -40.5t-36 -35t-50.5 -34.5q-36 -23 -60.5 -52.5t-24.5 -74.5q0 -44 34 -70t88 -26q35 0 59.5 9.5t41 25.5t25.5 35.5t12 39.5l82 -24q-16 -72 -75.5 -114t-146.5 -42q-39 0 -76.5 9.5
t-66.5 29.5t-47 50.5t-18 72.5q0 44 18.5 79.5t46 62.5t59.5 48zM228 455q0 26 19 45t46 19q26 0 45 -19t19 -45q0 -27 -19 -46t-45 -19q-27 0 -46 19t-19 46z" />
    <glyph glyph-name="Agrave" unicode="&#xc0;" horiz-adv-x="626" 
d="M261 669h105l250 -669h-100l-51 146h-304l-51 -146h-100zM190 227h246l-123 347zM216 864q8 0 16 -2.5t15 -10.5l106 -107h-76q-2 2 -12.5 8t-23.5 13.5t-26 16t-19 14.5q-16 14 -16 32q0 15 10.5 25.5t25.5 10.5z" />
    <glyph glyph-name="Aacute" unicode="&#xc1;" horiz-adv-x="626" 
d="M261 669h105l250 -669h-100l-51 146h-304l-51 -146h-100zM190 227h246l-123 347zM277 744q3 3 18 18.5t33 33.5l34 34l22 22q14 12 29 12t25.5 -10.5t10.5 -25.5q0 -19 -16 -32q-7 -5 -19.5 -13.5t-25 -16.5t-23 -14t-12.5 -8h-76z" />
    <glyph glyph-name="Acircumflex" unicode="&#xc2;" horiz-adv-x="626" 
d="M261 669h105l250 -669h-100l-51 146h-304l-51 -146h-100zM190 227h246l-123 347zM152 747l112 101q20 19 50 19q13 0 25.5 -4.5t23.5 -14.5l112 -101h-94l-68 61l-67 -61h-94z" />
    <glyph glyph-name="Atilde" unicode="&#xc3;" horiz-adv-x="626" 
d="M261 669h105l250 -669h-100l-51 146h-304l-51 -146h-100zM190 227h246l-123 347zM149 751q9 54 37.5 79t68.5 25q21 0 37 -6.5t30 -15t27.5 -15t29.5 -6.5q15 0 23.5 6t15.5 17q11 19 29 19q12 0 21.5 -9t9.5 -22q0 -8 -6.5 -20.5t-18.5 -24.5t-30 -20.5t-42 -8.5
q-21 0 -37.5 6.5t-31 15t-28 15t-28.5 6.5q-37 0 -42 -41h-65z" />
    <glyph glyph-name="Adieresis" unicode="&#xc4;" horiz-adv-x="626" 
d="M261 669h105l250 -669h-100l-51 146h-304l-51 -146h-100zM190 227h246l-123 347zM154 794q0 22 15.5 37.5t38.5 15.5t38.5 -15.5t15.5 -37.5q0 -23 -15.5 -38.5t-38.5 -15.5t-38.5 15.5t-15.5 38.5zM419 847q23 0 38.5 -15.5t15.5 -37.5q0 -23 -15.5 -38.5t-38.5 -15.5
q-22 0 -37.5 15.5t-15.5 38.5q0 22 15.5 37.5t37.5 15.5z" />
    <glyph glyph-name="Aring" unicode="&#xc5;" horiz-adv-x="626" 
d="M261 669h105l250 -669h-100l-51 146h-304l-51 -146h-100zM190 227h246l-123 347zM315 838q46 0 76.5 -32t30.5 -77t-30.5 -77t-76.5 -32q-47 0 -79 32t-32 77t32 77t79 32zM261 729q0 -21 15 -36t37 -15t37 15t15 36t-15 36t-37 15t-37 -15t-15 -36z" />
    <glyph glyph-name="AE" unicode="&#xc6;" horiz-adv-x="998" 
d="M10 0l486 668h464v-81h-360v-203h266v-81h-266v-222h360v-81h-454v145h-283l-104 -145h-109zM506 226v320l-227 -320h227z" />
    <glyph glyph-name="Ccedilla" unicode="&#xc7;" horiz-adv-x="671" 
d="M370 680q85 0 151.5 -39t101.5 -112l-82 -30q-23 45 -66.5 73.5t-109.5 28.5q-44 0 -82.5 -17t-67 -50.5t-44.5 -83.5t-16 -115q0 -63 15.5 -112.5t44 -84t67.5 -53t86 -18.5q66 0 110 28t67 74l82 -30q-36 -75 -106 -113t-159 -38q-72 0 -128 25.5t-95 71.5t-59.5 110
t-20.5 140q0 78 22 141.5t62.5 109t98 70t128.5 24.5zM277 -126q32 -14 58 -14t38.5 11t12.5 23q0 10 -8.5 17.5t-27.5 7.5q-11 0 -31 -5q-14 -4 -21 3t-7 16q0 5 3 10l51 82l34 -21l-30 -49q8 2 15.5 3t14.5 1q35 0 52 -18.5t17 -42.5q0 -29 -24 -54t-73 -25q-39 0 -88 20z
" />
    <glyph glyph-name="Egrave" unicode="&#xc8;" horiz-adv-x="567" 
d="M76 0v668h453v-81h-359v-203h265v-81h-265v-222h359v-81h-453zM230 864q8 0 16 -2.5t15 -10.5l106 -107h-76q-2 2 -12.5 8t-23.5 13.5t-26 16t-19 14.5q-16 14 -16 32q0 15 10.5 25.5t25.5 10.5z" />
    <glyph glyph-name="Eacute" unicode="&#xc9;" horiz-adv-x="567" 
d="M76 0v668h453v-81h-359v-203h265v-81h-265v-222h359v-81h-453zM265 744q3 3 18 18.5t33 33.5l34 34l22 22q14 12 29 12t25.5 -10.5t10.5 -25.5q0 -19 -16 -32q-7 -5 -19.5 -13.5t-25 -16.5t-23 -14t-12.5 -8h-76z" />
    <glyph glyph-name="Ecircumflex" unicode="&#xca;" horiz-adv-x="567" 
d="M76 0v668h453v-81h-359v-203h265v-81h-265v-222h359v-81h-453zM142 750l112 101q20 19 50 19q13 0 25.5 -4.5t23.5 -14.5l112 -101h-94l-68 61l-67 -61h-94z" />
    <glyph glyph-name="Edieresis" unicode="&#xcb;" horiz-adv-x="567" 
d="M76 0v668h453v-81h-359v-203h265v-81h-265v-222h359v-81h-453zM129 796q0 22 15.5 37.5t38.5 15.5t38.5 -15.5t15.5 -37.5q0 -23 -15.5 -38.5t-38.5 -15.5t-38.5 15.5t-15.5 38.5zM394 849q23 0 38.5 -15.5t15.5 -37.5q0 -23 -15.5 -38.5t-38.5 -15.5q-22 0 -37.5 15.5
t-15.5 38.5q0 22 15.5 37.5t37.5 15.5z" />
    <glyph glyph-name="Igrave" unicode="&#xcc;" horiz-adv-x="414" 
d="M66 594v74h282v-74h-94v-520h94v-74h-282v74h94v520h-94zM114 864q8 0 16 -2.5t15 -10.5l106 -107h-76q-2 2 -12.5 8t-23.5 13.5t-26 16t-19 14.5q-16 14 -16 32q0 15 10.5 25.5t25.5 10.5z" />
    <glyph glyph-name="Iacute" unicode="&#xcd;" horiz-adv-x="414" 
d="M66 594v74h282v-74h-94v-520h94v-74h-282v74h94v520h-94zM166 744q3 3 18 18.5t33 33.5l34 34l22 22q14 12 29 12t25.5 -10.5t10.5 -25.5q0 -19 -16 -32q-7 -5 -19.5 -13.5t-25 -16.5t-23 -14t-12.5 -8h-76z" />
    <glyph glyph-name="Icircumflex" unicode="&#xce;" horiz-adv-x="414" 
d="M66 594v74h282v-74h-94v-520h94v-74h-282v74h94v520h-94zM46 747l112 101q20 19 50 19q13 0 25.5 -4.5t23.5 -14.5l112 -101h-94l-68 61l-67 -61h-94z" />
    <glyph glyph-name="Idieresis" unicode="&#xcf;" horiz-adv-x="414" 
d="M66 594v74h282v-74h-94v-520h94v-74h-282v74h94v520h-94zM48 794q0 22 15.5 37.5t38.5 15.5t38.5 -15.5t15.5 -37.5q0 -23 -15.5 -38.5t-38.5 -15.5t-38.5 15.5t-15.5 38.5zM313 847q23 0 38.5 -15.5t15.5 -37.5q0 -23 -15.5 -38.5t-38.5 -15.5q-22 0 -37.5 15.5
t-15.5 38.5q0 22 15.5 37.5t37.5 15.5z" />
    <glyph glyph-name="Eth" unicode="&#xd0;" horiz-adv-x="712" 
d="M20 303v80h95v285h182q80 0 146.5 -16.5t115.5 -55t76 -102.5t27 -159q0 -96 -27 -160.5t-76 -103t-115.5 -55t-146.5 -16.5h-182v303h-95zM209 303v-224h86q52 0 100.5 8t86.5 34.5t61 77.5t23 136t-23 135t-61 76.5t-86.5 34.5t-100.5 8h-86v-206h140v-80h-140z" />
    <glyph glyph-name="Ntilde" unicode="&#xd1;" horiz-adv-x="689" 
d="M76 0v668h139l304 -568v568h94v-668h-138l-305 571v-571h-94zM179 751q9 54 37.5 79t68.5 25q21 0 37 -6.5t30 -15t27.5 -15t29.5 -6.5q15 0 23.5 6t15.5 17q11 19 29 19q12 0 21.5 -9t9.5 -22q0 -8 -6.5 -20.5t-18.5 -24.5t-30 -20.5t-42 -8.5q-21 0 -37.5 6.5t-31 15
t-28 15t-28.5 6.5q-37 0 -42 -41h-65z" />
    <glyph glyph-name="Ograve" unicode="&#xd2;" horiz-adv-x="727" 
d="M50 335q0 75 22 138.5t62.5 109.5t98.5 71.5t130 25.5t130.5 -25.5t99 -71.5t62.5 -109.5t22 -138.5q0 -76 -22 -139.5t-62.5 -109.5t-99 -72t-130.5 -26t-130 26t-98.5 72t-62.5 109.5t-22 139.5zM146 335q0 -65 17 -115t46 -84t69 -51.5t85 -17.5q46 0 85.5 17.5
t69 51.5t46.5 84t17 115t-17 114.5t-46.5 83t-69 51t-85.5 17.5q-45 0 -85 -17.5t-69 -51t-46 -83t-17 -114.5zM269 864q8 0 16 -2.5t15 -10.5l106 -107h-76q-2 2 -12.5 8t-23.5 13.5t-26 16t-19 14.5q-16 14 -16 32q0 15 10.5 25.5t25.5 10.5z" />
    <glyph glyph-name="Oacute" unicode="&#xd3;" horiz-adv-x="727" 
d="M50 335q0 75 22 138.5t62.5 109.5t98.5 71.5t130 25.5t130.5 -25.5t99 -71.5t62.5 -109.5t22 -138.5q0 -76 -22 -139.5t-62.5 -109.5t-99 -72t-130.5 -26t-130 26t-98.5 72t-62.5 109.5t-22 139.5zM146 335q0 -65 17 -115t46 -84t69 -51.5t85 -17.5q46 0 85.5 17.5
t69 51.5t46.5 84t17 115t-17 114.5t-46.5 83t-69 51t-85.5 17.5q-45 0 -85 -17.5t-69 -51t-46 -83t-17 -114.5zM323 744q3 3 18 18.5t33 33.5l34 34l22 22q14 12 29 12t25.5 -10.5t10.5 -25.5q0 -19 -16 -32q-7 -5 -19.5 -13.5t-25 -16.5t-23 -14t-12.5 -8h-76z" />
    <glyph glyph-name="Ocircumflex" unicode="&#xd4;" horiz-adv-x="727" 
d="M50 335q0 75 22 138.5t62.5 109.5t98.5 71.5t130 25.5t130.5 -25.5t99 -71.5t62.5 -109.5t22 -138.5q0 -76 -22 -139.5t-62.5 -109.5t-99 -72t-130.5 -26t-130 26t-98.5 72t-62.5 109.5t-22 139.5zM146 335q0 -65 17 -115t46 -84t69 -51.5t85 -17.5q46 0 85.5 17.5
t69 51.5t46.5 84t17 115t-17 114.5t-46.5 83t-69 51t-85.5 17.5q-45 0 -85 -17.5t-69 -51t-46 -83t-17 -114.5zM202 747l112 101q20 19 50 19q13 0 25.5 -4.5t23.5 -14.5l112 -101h-94l-68 61l-67 -61h-94z" />
    <glyph glyph-name="Otilde" unicode="&#xd5;" horiz-adv-x="727" 
d="M50 335q0 75 22 138.5t62.5 109.5t98.5 71.5t130 25.5t130.5 -25.5t99 -71.5t62.5 -109.5t22 -138.5q0 -76 -22 -139.5t-62.5 -109.5t-99 -72t-130.5 -26t-130 26t-98.5 72t-62.5 109.5t-22 139.5zM146 335q0 -65 17 -115t46 -84t69 -51.5t85 -17.5q46 0 85.5 17.5
t69 51.5t46.5 84t17 115t-17 114.5t-46.5 83t-69 51t-85.5 17.5q-45 0 -85 -17.5t-69 -51t-46 -83t-17 -114.5zM195 752q9 54 37.5 79t68.5 25q21 0 37 -6.5t30 -15t27.5 -15t29.5 -6.5q15 0 23.5 6t15.5 17q11 19 29 19q12 0 21.5 -9t9.5 -22q0 -8 -6.5 -20.5t-18.5 -24.5
t-30 -20.5t-42 -8.5q-21 0 -37.5 6.5t-31 15t-28 15t-28.5 6.5q-37 0 -42 -41h-65z" />
    <glyph glyph-name="Odieresis" unicode="&#xd6;" horiz-adv-x="727" 
d="M50 335q0 75 22 138.5t62.5 109.5t98.5 71.5t130 25.5t130.5 -25.5t99 -71.5t62.5 -109.5t22 -138.5q0 -76 -22 -139.5t-62.5 -109.5t-99 -72t-130.5 -26t-130 26t-98.5 72t-62.5 109.5t-22 139.5zM146 335q0 -65 17 -115t46 -84t69 -51.5t85 -17.5q46 0 85.5 17.5
t69 51.5t46.5 84t17 115t-17 114.5t-46.5 83t-69 51t-85.5 17.5q-45 0 -85 -17.5t-69 -51t-46 -83t-17 -114.5zM204 796q0 22 15.5 37.5t38.5 15.5t38.5 -15.5t15.5 -37.5q0 -23 -15.5 -38.5t-38.5 -15.5t-38.5 15.5t-15.5 38.5zM469 849q23 0 38.5 -15.5t15.5 -37.5
q0 -23 -15.5 -38.5t-38.5 -15.5q-22 0 -37.5 15.5t-15.5 38.5q0 22 15.5 37.5t37.5 15.5z" />
    <glyph glyph-name="multiply" unicode="&#xd7;" horiz-adv-x="528" 
d="M110 462l154 -154l154 154l57 -58l-153 -154l153 -153l-57 -58l-154 154l-154 -154l-57 58l154 153l-154 154z" />
    <glyph glyph-name="Oslash" unicode="&#xd8;" horiz-adv-x="727" 
d="M50 333q0 76 22 139.5t62.5 109.5t98.5 72t130 26q60 0 110.5 -18t89.5 -52l53 63l39 -32l-56 -67q38 -46 58 -107t20 -134q0 -75 -22 -138.5t-62.5 -109.5t-99 -71.5t-130.5 -25.5q-62 0 -113 18.5t-90 53.5l-57 -66l-38 33l60 70q-36 45 -55.5 105.5t-19.5 130.5z
M363 67q46 0 85.5 17.5t69 51.5t46.5 83.5t17 113.5q0 53 -11.5 95.5t-31.5 74.5l-321 -376q29 -29 66.5 -44.5t79.5 -15.5zM186 169l320 374q-58 56 -143 56q-45 0 -85 -17t-69 -51t-46 -83.5t-17 -114.5q0 -99 40 -164z" />
    <glyph glyph-name="Ugrave" unicode="&#xd9;" horiz-adv-x="690" 
d="M170 668v-396q0 -99 39.5 -151t135.5 -52t135.5 52t39.5 151v396h94v-389q0 -146 -61.5 -218.5t-207.5 -72.5q-145 0 -207 72.5t-62 218.5v389h94zM251 864q8 0 16 -2.5t15 -10.5l106 -107h-76q-2 2 -12.5 8t-23.5 13.5t-26 16t-19 14.5q-16 14 -16 32q0 15 10.5 25.5
t25.5 10.5z" />
    <glyph glyph-name="Uacute" unicode="&#xda;" horiz-adv-x="690" 
d="M170 668v-396q0 -99 39.5 -151t135.5 -52t135.5 52t39.5 151v396h94v-389q0 -146 -61.5 -218.5t-207.5 -72.5q-145 0 -207 72.5t-62 218.5v389h94zM305 744q3 3 18 18.5t33 33.5l34 34l22 22q14 12 29 12t25.5 -10.5t10.5 -25.5q0 -19 -16 -32q-7 -5 -19.5 -13.5
t-25 -16.5t-23 -14t-12.5 -8h-76z" />
    <glyph glyph-name="Ucircumflex" unicode="&#xdb;" horiz-adv-x="690" 
d="M170 668v-396q0 -99 39.5 -151t135.5 -52t135.5 52t39.5 151v396h94v-389q0 -146 -61.5 -218.5t-207.5 -72.5q-145 0 -207 72.5t-62 218.5v389h94zM184 747l112 101q20 19 50 19q13 0 25.5 -4.5t23.5 -14.5l112 -101h-94l-68 61l-67 -61h-94z" />
    <glyph glyph-name="Udieresis" unicode="&#xdc;" horiz-adv-x="690" 
d="M170 668v-396q0 -99 39.5 -151t135.5 -52t135.5 52t39.5 151v396h94v-389q0 -146 -61.5 -218.5t-207.5 -72.5q-145 0 -207 72.5t-62 218.5v389h94zM186 797q0 22 15.5 37.5t38.5 15.5t38.5 -15.5t15.5 -37.5q0 -23 -15.5 -38.5t-38.5 -15.5t-38.5 15.5t-15.5 38.5z
M451 850q23 0 38.5 -15.5t15.5 -37.5q0 -23 -15.5 -38.5t-38.5 -15.5q-22 0 -37.5 15.5t-15.5 38.5q0 22 15.5 37.5t37.5 15.5z" />
    <glyph glyph-name="Yacute" unicode="&#xdd;" horiz-adv-x="595" 
d="M10 668h103l185 -323l184 323h103l-240 -409v-259h-94v259zM258 744q3 3 18 18.5t33 33.5l34 34l22 22q14 12 29 12t25.5 -10.5t10.5 -25.5q0 -19 -16 -32q-7 -5 -19.5 -13.5t-25 -16.5t-23 -14t-12.5 -8h-76z" />
    <glyph glyph-name="Thorn" unicode="&#xde;" horiz-adv-x="576" 
d="M160 668v-140h127q56 0 102 -7.5t79 -28t51.5 -56t18.5 -91.5t-18.5 -91.5t-51.5 -55.5t-79 -27.5t-102 -7.5h-127v-163h-84v668h84zM160 447v-203h136q30 0 56.5 2.5t46 13t31 30.5t11.5 54t-11.5 54.5t-31 31t-46 14t-56.5 3.5h-136z" />
    <glyph glyph-name="germandbls" unicode="&#xdf;" horiz-adv-x="597" 
d="M76 0v453q0 36 7 75.5t31.5 73.5t71.5 56t126 22q45 0 83 -11t65.5 -32t43.5 -50.5t16 -65.5q0 -51 -24 -87t-76 -58q59 -15 99 -56.5t40 -122.5q0 -59 -21.5 -99.5t-57 -65.5t-82 -35.5t-96.5 -8.5l-23 77q21 -3 39 -3q68 0 109.5 33t41.5 100q0 38 -13.5 64t-38.5 41.5
t-60 22.5t-78 7v76q75 0 115.5 27t40.5 78q0 45 -34 72.5t-90 27.5q-79 0 -115 -35.5t-36 -122.5v-453h-84z" />
    <glyph glyph-name="agrave" unicode="&#xe0;" horiz-adv-x="526" 
d="M373 306q2 63 -25 97t-87 34q-45 0 -73.5 -20.5t-36.5 -56.5l-81 24q20 57 71.5 88.5t118.5 31.5q103 0 149.5 -48t47.5 -153l1 -116q1 -63 5.5 -107.5t11.5 -79.5h-77l-20 68q-23 -38 -63 -59t-106 -21q-35 0 -66 9.5t-54.5 28t-37 45t-13.5 60.5q0 44 24 74t67.5 49.5
t105.5 31t138 20.5zM131 133q0 -35 25.5 -56.5t70.5 -21.5q29 0 56.5 7.5t49 25t34.5 47t13 73.5v31q-57 -6 -103 -13.5t-78.5 -19.5t-50 -29.5t-17.5 -43.5zM177 707q8 0 16 -3t15 -12l93 -121h-70q-20 16 -40.5 33.5t-34.5 31.5q-11 11 -14 18.5t-3 14.5q0 16 11 27t27 11
z" />
    <glyph glyph-name="aacute" unicode="&#xe1;" horiz-adv-x="526" 
d="M373 306q2 63 -25 97t-87 34q-45 0 -73.5 -20.5t-36.5 -56.5l-81 24q20 57 71.5 88.5t118.5 31.5q103 0 149.5 -48t47.5 -153l1 -116q1 -63 5.5 -107.5t11.5 -79.5h-77l-20 68q-23 -38 -63 -59t-106 -21q-35 0 -66 9.5t-54.5 28t-37 45t-13.5 60.5q0 44 24 74t67.5 49.5
t105.5 31t138 20.5zM131 133q0 -35 25.5 -56.5t70.5 -21.5q29 0 56.5 7.5t49 25t34.5 47t13 73.5v31q-57 -6 -103 -13.5t-78.5 -19.5t-50 -29.5t-17.5 -43.5zM222 571q3 4 16 21t28.5 37t30 39t21.5 26q10 13 28 13q16 0 27 -11t11 -27q0 -12 -13 -28q-5 -7 -17.5 -18
l-25 -22t-23.5 -19.5t-13 -10.5h-70z" />
    <glyph glyph-name="acircumflex" unicode="&#xe2;" horiz-adv-x="526" 
d="M373 306q2 63 -25 97t-87 34q-45 0 -73.5 -20.5t-36.5 -56.5l-81 24q20 57 71.5 88.5t118.5 31.5q103 0 149.5 -48t47.5 -153l1 -116q1 -63 5.5 -107.5t11.5 -79.5h-77l-20 68q-23 -38 -63 -59t-106 -21q-35 0 -66 9.5t-54.5 28t-37 45t-13.5 60.5q0 44 24 74t67.5 49.5
t105.5 31t138 20.5zM131 133q0 -35 25.5 -56.5t70.5 -21.5q29 0 56.5 7.5t49 25t34.5 47t13 73.5v31q-57 -6 -103 -13.5t-78.5 -19.5t-50 -29.5t-17.5 -43.5zM104 575l112 101q20 19 50 19q13 0 25.5 -4.5t23.5 -14.5l112 -101h-94l-68 61l-67 -61h-94z" />
    <glyph glyph-name="atilde" unicode="&#xe3;" horiz-adv-x="526" 
d="M373 306q2 63 -25 97t-87 34q-45 0 -73.5 -20.5t-36.5 -56.5l-81 24q20 57 71.5 88.5t118.5 31.5q103 0 149.5 -48t47.5 -153l1 -116q1 -63 5.5 -107.5t11.5 -79.5h-77l-20 68q-23 -38 -63 -59t-106 -21q-35 0 -66 9.5t-54.5 28t-37 45t-13.5 60.5q0 44 24 74t67.5 49.5
t105.5 31t138 20.5zM131 133q0 -35 25.5 -56.5t70.5 -21.5q29 0 56.5 7.5t49 25t34.5 47t13 73.5v31q-57 -6 -103 -13.5t-78.5 -19.5t-50 -29.5t-17.5 -43.5zM99 577q9 54 37.5 79t68.5 25q21 0 37 -6.5t30 -15t27.5 -15t29.5 -6.5q15 0 23.5 6t15.5 17q11 19 29 19
q12 0 21.5 -9t9.5 -22q0 -8 -6.5 -20.5t-18.5 -24.5t-30 -20.5t-42 -8.5q-21 0 -37.5 6.5t-31 15t-28 15t-28.5 6.5q-37 0 -42 -41h-65z" />
    <glyph glyph-name="adieresis" unicode="&#xe4;" horiz-adv-x="526" 
d="M373 306q2 63 -25 97t-87 34q-45 0 -73.5 -20.5t-36.5 -56.5l-81 24q20 57 71.5 88.5t118.5 31.5q103 0 149.5 -48t47.5 -153l1 -116q1 -63 5.5 -107.5t11.5 -79.5h-77l-20 68q-23 -38 -63 -59t-106 -21q-35 0 -66 9.5t-54.5 28t-37 45t-13.5 60.5q0 44 24 74t67.5 49.5
t105.5 31t138 20.5zM131 133q0 -35 25.5 -56.5t70.5 -21.5q29 0 56.5 7.5t49 25t34.5 47t13 73.5v31q-57 -6 -103 -13.5t-78.5 -19.5t-50 -29.5t-17.5 -43.5zM105 644q0 22 15.5 37.5t38.5 15.5t38.5 -15.5t15.5 -37.5q0 -23 -15.5 -38.5t-38.5 -15.5t-38.5 15.5t-15.5 38.5
zM370 697q23 0 38.5 -15.5t15.5 -37.5q0 -23 -15.5 -38.5t-38.5 -15.5q-22 0 -37.5 15.5t-15.5 38.5q0 22 15.5 37.5t37.5 15.5z" />
    <glyph glyph-name="aring" unicode="&#xe5;" horiz-adv-x="526" 
d="M373 306q2 63 -25 97t-87 34q-45 0 -73.5 -20.5t-36.5 -56.5l-81 24q20 57 71.5 88.5t118.5 31.5q103 0 149.5 -48t47.5 -153l1 -116q1 -63 5.5 -107.5t11.5 -79.5h-77l-20 68q-23 -38 -63 -59t-106 -21q-35 0 -66 9.5t-54.5 28t-37 45t-13.5 60.5q0 44 24 74t67.5 49.5
t105.5 31t138 20.5zM131 133q0 -35 25.5 -56.5t70.5 -21.5q29 0 56.5 7.5t49 25t34.5 47t13 73.5v31q-57 -6 -103 -13.5t-78.5 -19.5t-50 -29.5t-17.5 -43.5zM267 777q46 0 76.5 -32t30.5 -77t-30.5 -77t-76.5 -32q-47 0 -79 32t-32 77t32 77t79 32zM213 668q0 -21 15 -36
t37 -15t37 15t15 36t-15 36t-37 15t-37 -15t-15 -36z" />
    <glyph glyph-name="ae" unicode="&#xe6;" horiz-adv-x="874" 
d="M38 131q0 45 26 75.5t71 49.5t106.5 27.5t131.5 8.5v34.5t-9 48t-32.5 43t-70.5 18.5q-45 0 -73.5 -20.5t-36.5 -56.5l-81 24q21 59 74.5 90t115.5 31q130 0 173 -80q33 38 79.5 59t101.5 21q60 0 105 -24t74 -63t42.5 -89t9.5 -103h-382q2 -47 17.5 -78.5t38 -50
t49 -26.5t49.5 -8q42 0 70 13t46 36l81 -24q-28 -44 -78 -71.5t-119 -27.5t-119.5 27t-80.5 73q-26 -43 -77.5 -71.5t-130.5 -28.5q-35 0 -66 9.5t-54.5 28t-37 45t-13.5 60.5zM227 54q63 0 95 24.5t45 55t13 58v33.5q-115 0 -182 -20.5t-67 -71.5q0 -35 25.5 -57t70.5 -22z
M465 292h292q-1 26 -11 51.5t-28.5 45t-44.5 31.5t-59 12q-28 0 -54 -8t-46 -24.5t-33 -43t-16 -64.5z" />
    <glyph glyph-name="ccedilla" unicode="&#xe7;" horiz-adv-x="512" 
d="M290 504q67 0 115 -33t72 -79l-77 -28q-17 30 -47.5 48t-68.5 18q-28 0 -54 -11t-45.5 -33.5t-31.5 -57t-12 -81.5t12 -81.5t32 -57.5t45.5 -34.5t53.5 -11.5q41 0 71 18.5t47 46.5l77 -28q-28 -48 -80 -79.5t-118 -31.5q-53 0 -96 19t-73 53.5t-46 82t-16 103.5t17 103
t48 81.5t75.5 54t99.5 19.5zM192 -126q32 -14 58 -14t38.5 11t12.5 23q0 10 -8.5 17.5t-27.5 7.5q-11 0 -31 -5q-14 -4 -21 3t-7 16q0 5 3 10l51 82l34 -21l-30 -49q8 2 15.5 3t14.5 1q35 0 52 -18.5t17 -42.5q0 -29 -24 -54t-73 -25q-39 0 -88 20z" />
    <glyph glyph-name="egrave" unicode="&#xe8;" 
d="M279 504q59 0 104 -23.5t74.5 -62.5t43 -89.5t9.5 -103.5h-382q2 -47 17.5 -78.5t38 -50t48.5 -26.5t49 -8q42 0 70.5 13t45.5 36l81 -24q-27 -44 -77 -71.5t-120 -27.5q-58 0 -103.5 20t-76.5 55t-47 82t-16 102q0 59 18.5 106.5t51 81t76.5 51.5t95 18zM421 292
q0 26 -10 51.5t-28.5 45t-44.5 31.5t-59 12q-28 0 -54 -8t-46 -24.5t-33.5 -43t-16.5 -64.5h292zM185 707q8 0 16 -3t15 -12l93 -121h-70q-20 16 -40.5 33.5t-34.5 31.5q-11 11 -14 18.5t-3 14.5q0 16 11 27t27 11z" />
    <glyph glyph-name="eacute" unicode="&#xe9;" 
d="M279 504q59 0 104 -23.5t74.5 -62.5t43 -89.5t9.5 -103.5h-382q2 -47 17.5 -78.5t38 -50t48.5 -26.5t49 -8q42 0 70.5 13t45.5 36l81 -24q-27 -44 -77 -71.5t-120 -27.5q-58 0 -103.5 20t-76.5 55t-47 82t-16 102q0 59 18.5 106.5t51 81t76.5 51.5t95 18zM421 292
q0 26 -10 51.5t-28.5 45t-44.5 31.5t-59 12q-28 0 -54 -8t-46 -24.5t-33.5 -43t-16.5 -64.5h292zM239 571q3 4 16 21t28.5 37t30 39t21.5 26q10 13 28 13q16 0 27 -11t11 -27q0 -12 -13 -28q-5 -7 -17.5 -18l-25 -22t-23.5 -19.5t-13 -10.5h-70z" />
    <glyph glyph-name="ecircumflex" unicode="&#xea;" 
d="M279 504q59 0 104 -23.5t74.5 -62.5t43 -89.5t9.5 -103.5h-382q2 -47 17.5 -78.5t38 -50t48.5 -26.5t49 -8q42 0 70.5 13t45.5 36l81 -24q-27 -44 -77 -71.5t-120 -27.5q-58 0 -103.5 20t-76.5 55t-47 82t-16 102q0 59 18.5 106.5t51 81t76.5 51.5t95 18zM421 292
q0 26 -10 51.5t-28.5 45t-44.5 31.5t-59 12q-28 0 -54 -8t-46 -24.5t-33.5 -43t-16.5 -64.5h292zM109 575l112 101q20 19 50 19q13 0 25.5 -4.5t23.5 -14.5l112 -101h-94l-68 61l-67 -61h-94z" />
    <glyph glyph-name="edieresis" unicode="&#xeb;" 
d="M279 504q59 0 104 -23.5t74.5 -62.5t43 -89.5t9.5 -103.5h-382q2 -47 17.5 -78.5t38 -50t48.5 -26.5t49 -8q42 0 70.5 13t45.5 36l81 -24q-27 -44 -77 -71.5t-120 -27.5q-58 0 -103.5 20t-76.5 55t-47 82t-16 102q0 59 18.5 106.5t51 81t76.5 51.5t95 18zM421 292
q0 26 -10 51.5t-28.5 45t-44.5 31.5t-59 12q-28 0 -54 -8t-46 -24.5t-33.5 -43t-16.5 -64.5h292zM111 644q0 22 15.5 37.5t38.5 15.5t38.5 -15.5t15.5 -37.5q0 -23 -15.5 -38.5t-38.5 -15.5t-38.5 15.5t-15.5 38.5zM376 697q23 0 38.5 -15.5t15.5 -37.5q0 -23 -15.5 -38.5
t-38.5 -15.5q-22 0 -37.5 15.5t-15.5 38.5q0 22 15.5 37.5t37.5 15.5z" />
    <glyph glyph-name="igrave" unicode="&#xec;" horiz-adv-x="278" 
d="M114 429h-69v67h153v-496h-84v429zM65 707q8 0 16 -3t15 -12l93 -121h-70q-20 16 -40.5 33.5t-34.5 31.5q-11 11 -14 18.5t-3 14.5q0 16 11 27t27 11z" />
    <glyph glyph-name="iacute" unicode="&#xed;" horiz-adv-x="278" 
d="M114 429h-69v67h153v-496h-84v429zM114 570q3 4 16 21t28.5 37t30 39t21.5 26q10 13 28 13q16 0 27 -11t11 -27q0 -12 -13 -28q-5 -7 -17.5 -18l-25 -22t-23.5 -19.5t-13 -10.5h-70z" />
    <glyph glyph-name="icircumflex" unicode="&#xee;" horiz-adv-x="278" 
d="M114 429h-69v67h153v-496h-84v429zM-13 575l112 101q20 19 50 19q13 0 25.5 -4.5t23.5 -14.5l112 -101h-94l-68 61l-67 -61h-94z" />
    <glyph glyph-name="idieresis" unicode="&#xef;" horiz-adv-x="278" 
d="M114 429h-69v67h153v-496h-84v429zM-21 638q0 22 15.5 37.5t38.5 15.5t38.5 -15.5t15.5 -37.5q0 -23 -15.5 -38.5t-38.5 -15.5t-38.5 15.5t-15.5 38.5zM244 691q23 0 38.5 -15.5t15.5 -37.5q0 -23 -15.5 -38.5t-38.5 -15.5q-22 0 -37.5 15.5t-15.5 38.5q0 22 15.5 37.5
t37.5 15.5z" />
    <glyph glyph-name="eth" unicode="&#xf0;" horiz-adv-x="567" 
d="M38 218q0 50 16 92t45 72t68.5 46.5t86.5 16.5q66 0 109.5 -26.5t66.5 -66.5q-5 69 -23.5 116.5t-50.5 78.5l-73 -73l-36 36l66 66q-27 14 -61.5 20t-76.5 6v77q56 0 105 -10t91 -35l46 46l36 -36l-40 -40q27 -24 46.5 -57.5t32 -73t19 -83t6.5 -87.5q0 -60 -11.5 -117
t-39.5 -101t-75 -70.5t-118 -26.5q-54 0 -97 18.5t-74 50t-47.5 73.5t-16.5 88zM273 59q67 0 106.5 43.5t39.5 112.5t-39.5 112.5t-106.5 43.5q-66 0 -105.5 -43.5t-39.5 -112.5t39.5 -112.5t105.5 -43.5z" />
    <glyph glyph-name="ntilde" unicode="&#xf1;" horiz-adv-x="546" 
d="M132 496l22 -75q21 35 59 59t101 24q90 0 127 -52.5t37 -137.5v-314h-84v289q0 29 -3.5 54.5t-15 45.5t-33 31.5t-57.5 11.5q-61 0 -96 -41.5t-35 -121.5v-269h-84v496h62zM107 577q9 54 37.5 79t68.5 25q21 0 37 -6.5t30 -15t27.5 -15t29.5 -6.5q15 0 23.5 6t15.5 17
q11 19 29 19q12 0 21.5 -9t9.5 -22q0 -8 -6.5 -20.5t-18.5 -24.5t-30 -20.5t-42 -8.5q-21 0 -37.5 6.5t-31 15t-28 15t-28.5 6.5q-37 0 -42 -41h-65z" />
    <glyph glyph-name="ograve" unicode="&#xf2;" horiz-adv-x="552" 
d="M38 246q0 67 21 116t55 80.5t76.5 46.5t85.5 15t85.5 -15t76.5 -46.5t55 -80.5t21 -116t-21 -116t-55 -80.5t-76.5 -46.5t-85.5 -15t-85.5 15t-76.5 46.5t-55 80.5t-21 116zM128 246q0 -48 13 -82.5t34 -57t47.5 -33.5t53.5 -11t53.5 11t47.5 33.5t34 57t13 82.5t-13 83
t-34 57.5t-47.5 33t-53.5 10.5t-53.5 -10.5t-47.5 -33t-34 -57.5t-13 -83zM185 707q8 0 16 -3t15 -12l93 -121h-70q-20 16 -40.5 33.5t-34.5 31.5q-11 11 -14 18.5t-3 14.5q0 16 11 27t27 11z" />
    <glyph glyph-name="oacute" unicode="&#xf3;" horiz-adv-x="552" 
d="M38 246q0 67 21 116t55 80.5t76.5 46.5t85.5 15t85.5 -15t76.5 -46.5t55 -80.5t21 -116t-21 -116t-55 -80.5t-76.5 -46.5t-85.5 -15t-85.5 15t-76.5 46.5t-55 80.5t-21 116zM128 246q0 -48 13 -82.5t34 -57t47.5 -33.5t53.5 -11t53.5 11t47.5 33.5t34 57t13 82.5t-13 83
t-34 57.5t-47.5 33t-53.5 10.5t-53.5 -10.5t-47.5 -33t-34 -57.5t-13 -83zM241 571q3 4 16 21t28.5 37t30 39t21.5 26q10 13 28 13q16 0 27 -11t11 -27q0 -12 -13 -28q-5 -7 -17.5 -18l-25 -22t-23.5 -19.5t-13 -10.5h-70z" />
    <glyph glyph-name="ocircumflex" unicode="&#xf4;" horiz-adv-x="552" 
d="M38 246q0 67 21 116t55 80.5t76.5 46.5t85.5 15t85.5 -15t76.5 -46.5t55 -80.5t21 -116t-21 -116t-55 -80.5t-76.5 -46.5t-85.5 -15t-85.5 15t-76.5 46.5t-55 80.5t-21 116zM128 246q0 -48 13 -82.5t34 -57t47.5 -33.5t53.5 -11t53.5 11t47.5 33.5t34 57t13 82.5t-13 83
t-34 57.5t-47.5 33t-53.5 10.5t-53.5 -10.5t-47.5 -33t-34 -57.5t-13 -83zM115 575l112 101q20 19 50 19q13 0 25.5 -4.5t23.5 -14.5l112 -101h-94l-68 61l-67 -61h-94z" />
    <glyph glyph-name="otilde" unicode="&#xf5;" horiz-adv-x="552" 
d="M38 246q0 67 21 116t55 80.5t76.5 46.5t85.5 15t85.5 -15t76.5 -46.5t55 -80.5t21 -116t-21 -116t-55 -80.5t-76.5 -46.5t-85.5 -15t-85.5 15t-76.5 46.5t-55 80.5t-21 116zM128 246q0 -48 13 -82.5t34 -57t47.5 -33.5t53.5 -11t53.5 11t47.5 33.5t34 57t13 82.5t-13 83
t-34 57.5t-47.5 33t-53.5 10.5t-53.5 -10.5t-47.5 -33t-34 -57.5t-13 -83zM107 577q9 54 37.5 79t68.5 25q21 0 37 -6.5t30 -15t27.5 -15t29.5 -6.5q15 0 23.5 6t15.5 17q11 19 29 19q12 0 21.5 -9t9.5 -22q0 -8 -6.5 -20.5t-18.5 -24.5t-30 -20.5t-42 -8.5q-21 0 -37.5 6.5
t-31 15t-28 15t-28.5 6.5q-37 0 -42 -41h-65z" />
    <glyph glyph-name="odieresis" unicode="&#xf6;" horiz-adv-x="552" 
d="M38 246q0 67 21 116t55 80.5t76.5 46.5t85.5 15t85.5 -15t76.5 -46.5t55 -80.5t21 -116t-21 -116t-55 -80.5t-76.5 -46.5t-85.5 -15t-85.5 15t-76.5 46.5t-55 80.5t-21 116zM128 246q0 -48 13 -82.5t34 -57t47.5 -33.5t53.5 -11t53.5 11t47.5 33.5t34 57t13 82.5t-13 83
t-34 57.5t-47.5 33t-53.5 10.5t-53.5 -10.5t-47.5 -33t-34 -57.5t-13 -83zM117 644q0 22 15.5 37.5t38.5 15.5t38.5 -15.5t15.5 -37.5q0 -23 -15.5 -38.5t-38.5 -15.5t-38.5 15.5t-15.5 38.5zM382 697q23 0 38.5 -15.5t15.5 -37.5q0 -23 -15.5 -38.5t-38.5 -15.5
q-22 0 -37.5 15.5t-15.5 38.5q0 22 15.5 37.5t37.5 15.5z" />
    <glyph glyph-name="divide" unicode="&#xf7;" horiz-adv-x="602" 
d="M53 208v81h496v-81h-496zM236 418q0 27 19 46t46 19t45.5 -19t18.5 -46t-18.5 -45.5t-45.5 -18.5t-46 18.5t-19 45.5zM236 79q0 26 19 45t46 19t45.5 -19t18.5 -45q0 -27 -18.5 -46t-45.5 -19t-46 19t-19 46z" />
    <glyph glyph-name="oslash" unicode="&#xf8;" horiz-adv-x="552" 
d="M38 246q0 67 21 116t55 80.5t76.5 46.5t85.5 15q37 0 73 -10.5t67 -33.5l41 47l38 -33l-41 -49q27 -31 43.5 -75.5t16.5 -103.5q0 -67 -21 -116t-55 -80.5t-76.5 -46.5t-85.5 -15q-40 0 -79.5 12.5t-71.5 39.5l-42 -49l-38 33l44 53q-23 31 -37 73t-14 96zM178 103
q21 -21 46.5 -31t51.5 -10q27 0 53.5 11t47.5 33.5t34 57t13 82.5q0 35 -7 63t-20 50zM148 146l216 252q-20 17 -42.5 24.5t-45.5 7.5q-27 0 -53.5 -10.5t-48 -33t-34.5 -57.5t-13 -83q0 -58 21 -100z" />
    <glyph glyph-name="ugrave" unicode="&#xf9;" horiz-adv-x="536" 
d="M68 497h84v-292q0 -29 3.5 -55t14.5 -45.5t31.5 -31t54.5 -11.5q60 0 93 41t33 121v273h84v-497h-63l-21 72q-21 -36 -57 -60t-98 -24q-43 0 -73.5 14t-49.5 39.5t-27.5 61t-8.5 77.5v317zM182 707q8 0 16 -3t15 -12l93 -121h-70q-20 16 -40.5 33.5t-34.5 31.5
q-11 11 -14 18.5t-3 14.5q0 16 11 27t27 11z" />
    <glyph glyph-name="uacute" unicode="&#xfa;" horiz-adv-x="536" 
d="M68 497h84v-292q0 -29 3.5 -55t14.5 -45.5t31.5 -31t54.5 -11.5q60 0 93 41t33 121v273h84v-497h-63l-21 72q-21 -36 -57 -60t-98 -24q-43 0 -73.5 14t-49.5 39.5t-27.5 61t-8.5 77.5v317zM236 571q3 4 16 21t28.5 37t30 39t21.5 26q10 13 28 13q16 0 27 -11t11 -27
q0 -12 -13 -28q-5 -7 -17.5 -18l-25 -22t-23.5 -19.5t-13 -10.5h-70z" />
    <glyph glyph-name="ucircumflex" unicode="&#xfb;" horiz-adv-x="536" 
d="M68 497h84v-292q0 -29 3.5 -55t14.5 -45.5t31.5 -31t54.5 -11.5q60 0 93 41t33 121v273h84v-497h-63l-21 72q-21 -36 -57 -60t-98 -24q-43 0 -73.5 14t-49.5 39.5t-27.5 61t-8.5 77.5v317zM106 575l112 101q20 19 50 19q13 0 25.5 -4.5t23.5 -14.5l112 -101h-94l-68 61
l-67 -61h-94z" />
    <glyph glyph-name="udieresis" unicode="&#xfc;" horiz-adv-x="536" 
d="M68 497h84v-292q0 -29 3.5 -55t14.5 -45.5t31.5 -31t54.5 -11.5q60 0 93 41t33 121v273h84v-497h-63l-21 72q-21 -36 -57 -60t-98 -24q-43 0 -73.5 14t-49.5 39.5t-27.5 61t-8.5 77.5v317zM108 644q0 22 15.5 37.5t38.5 15.5t38.5 -15.5t15.5 -37.5q0 -23 -15.5 -38.5
t-38.5 -15.5t-38.5 15.5t-15.5 38.5zM373 697q23 0 38.5 -15.5t15.5 -37.5q0 -23 -15.5 -38.5t-38.5 -15.5q-22 0 -37.5 15.5t-15.5 38.5q0 22 15.5 37.5t37.5 15.5z" />
    <glyph glyph-name="yacute" unicode="&#xfd;" horiz-adv-x="429" 
d="M93 495l122 -382l122 382h92l-176 -517q-13 -40 -26.5 -67t-32 -43t-45.5 -22.5t-69 -6.5h-43v74h34q27 0 44 2.5t28.5 11.5t19 26t16.5 46l-179 496h93zM179 571q3 4 16 21t28.5 37t30 39t21.5 26q10 13 28 13q16 0 27 -11t11 -27q0 -12 -13 -28q-5 -7 -17.5 -18
l-25 -22t-23.5 -19.5t-13 -10.5h-70z" />
    <glyph glyph-name="thorn" unicode="&#xfe;" horiz-adv-x="566" 
d="M70 -161v830h84v-251q23 39 62.5 63t98.5 24q42 0 81 -17.5t68 -50.5t46.5 -81t17.5 -110q0 -61 -17.5 -109t-46.5 -81t-68 -50.5t-81 -17.5q-59 0 -98.5 24t-62.5 63v-236h-84zM293 60q64 0 102.5 48.5t38.5 137.5t-38.5 138t-102.5 49t-102.5 -49t-38.5 -138
q0 -88 38.5 -137t102.5 -49z" />
    <glyph glyph-name="ydieresis" unicode="&#xff;" horiz-adv-x="429" 
d="M93 495l122 -382l122 382h92l-176 -517q-13 -40 -26.5 -67t-32 -43t-45.5 -22.5t-69 -6.5h-43v74h34q27 0 44 2.5t28.5 11.5t19 26t16.5 46l-179 496h93zM55 644q0 22 15.5 37.5t38.5 15.5t38.5 -15.5t15.5 -37.5q0 -23 -15.5 -38.5t-38.5 -15.5t-38.5 15.5t-15.5 38.5z
M320 697q23 0 38.5 -15.5t15.5 -37.5q0 -23 -15.5 -38.5t-38.5 -15.5q-22 0 -37.5 15.5t-15.5 38.5q0 22 15.5 37.5t37.5 15.5z" />
    <glyph glyph-name="Amacron" unicode="&#x100;" horiz-adv-x="626" 
d="M261 669h105l250 -669h-100l-51 146h-304l-51 -146h-100zM190 227h246l-123 347zM175 829h276v-67h-276v67z" />
    <glyph glyph-name="amacron" unicode="&#x101;" horiz-adv-x="526" 
d="M373 306q2 63 -25 97t-87 34q-45 0 -73.5 -20.5t-36.5 -56.5l-81 24q20 57 71.5 88.5t118.5 31.5q103 0 149.5 -48t47.5 -153l1 -116q1 -63 5.5 -107.5t11.5 -79.5h-77l-20 68q-23 -38 -63 -59t-106 -21q-35 0 -66 9.5t-54.5 28t-37 45t-13.5 60.5q0 44 24 74t67.5 49.5
t105.5 31t138 20.5zM131 133q0 -35 25.5 -56.5t70.5 -21.5q29 0 56.5 7.5t49 25t34.5 47t13 73.5v31q-57 -6 -103 -13.5t-78.5 -19.5t-50 -29.5t-17.5 -43.5zM127 668h276v-67h-276v67z" />
    <glyph glyph-name="Abreve" unicode="&#x102;" horiz-adv-x="626" 
d="M261 669h105l250 -669h-100l-51 146h-304l-51 -146h-100zM190 227h246l-123 347zM461 855q-11 -51 -52 -85.5t-95 -34.5q-55 0 -95.5 34.5t-51.5 85.5h69q9 -23 30 -38t48 -15q26 0 47 15t31 38h69z" />
    <glyph glyph-name="abreve" unicode="&#x103;" horiz-adv-x="526" 
d="M373 306q2 63 -25 97t-87 34q-45 0 -73.5 -20.5t-36.5 -56.5l-81 24q20 57 71.5 88.5t118.5 31.5q103 0 149.5 -48t47.5 -153l1 -116q1 -63 5.5 -107.5t11.5 -79.5h-77l-20 68q-23 -38 -63 -59t-106 -21q-35 0 -66 9.5t-54.5 28t-37 45t-13.5 60.5q0 44 24 74t67.5 49.5
t105.5 31t138 20.5zM131 133q0 -35 25.5 -56.5t70.5 -21.5q29 0 56.5 7.5t49 25t34.5 47t13 73.5v31q-57 -6 -103 -13.5t-78.5 -19.5t-50 -29.5t-17.5 -43.5zM408 689q-11 -51 -52 -85.5t-95 -34.5q-55 0 -95.5 34.5t-51.5 85.5h69q9 -23 30 -38t48 -15q26 0 47 15t31 38h69
z" />
    <glyph glyph-name="Aogonek" unicode="&#x104;" horiz-adv-x="626" 
d="M261 669h105l250 -669h-100l-51 146h-304l-51 -146h-100zM190 227h246l-123 347zM516 0h100q-42 -15 -64.5 -31.5t-22.5 -42.5q0 -21 14 -31t35 -10t38 8v-54q-34 -12 -63 -12q-45 0 -69.5 25t-24.5 57q0 36 18.5 58t38.5 33z" />
    <glyph glyph-name="aogonek" unicode="&#x105;" horiz-adv-x="526" 
d="M373 306q2 63 -25 97t-87 34q-45 0 -73.5 -20.5t-36.5 -56.5l-81 24q20 57 71.5 88.5t118.5 31.5q103 0 149.5 -48t47.5 -153l1 -116q1 -63 5.5 -107.5t11.5 -79.5h-77l-20 68q-23 -38 -63 -59t-106 -21q-35 0 -66 9.5t-54.5 28t-37 45t-13.5 60.5q0 44 24 74t67.5 49.5
t105.5 31t138 20.5zM131 133q0 -35 25.5 -56.5t70.5 -21.5q29 0 56.5 7.5t49 25t34.5 47t13 73.5v31q-57 -6 -103 -13.5t-78.5 -19.5t-50 -29.5t-17.5 -43.5zM398 0h77q-51 -19 -69 -37.5t-18 -37.5q0 -20 14 -30t35 -10t38 8v-54q-34 -12 -63 -12q-45 0 -69.5 25t-24.5 57
q0 31 21.5 56.5t58.5 34.5z" />
    <glyph glyph-name="Cacute" unicode="&#x106;" horiz-adv-x="656" 
d="M361 680q85 0 151.5 -39t101.5 -112l-82 -30q-23 45 -66.5 73.5t-109.5 28.5q-44 0 -82.5 -17t-67 -50.5t-44.5 -83.5t-16 -115q0 -63 15.5 -112.5t44 -84t67.5 -53t86 -18.5q66 0 110 28t67 74l82 -30q-36 -75 -106 -113t-159 -38q-72 0 -128 25.5t-95 71.5t-59.5 110
t-20.5 140q0 78 22 141.5t62.5 109t98 70t128.5 24.5zM317 744q3 3 18 18.5t33 33.5l34 34l22 22q14 12 29 12t25.5 -10.5t10.5 -25.5q0 -19 -16 -32q-7 -5 -19.5 -13.5t-25 -16.5t-23 -14t-12.5 -8h-76z" />
    <glyph glyph-name="cacute" unicode="&#x107;" horiz-adv-x="500" 
d="M278 504q67 0 115 -33t72 -79l-77 -28q-17 30 -47.5 48t-68.5 18q-28 0 -54 -11t-45.5 -33.5t-31.5 -57t-12 -81.5t12 -81.5t32 -57.5t45.5 -34.5t53.5 -11.5q41 0 71 18.5t47 46.5l77 -28q-28 -48 -80 -79.5t-118 -31.5q-53 0 -96 19t-73 53.5t-46 82t-16 103.5t17 103
t48 81.5t75.5 54t99.5 19.5zM234 571q3 4 16 21t28.5 37t30 39t21.5 26q10 13 28 13q16 0 27 -11t11 -27q0 -12 -13 -28q-5 -7 -17.5 -18l-25 -22t-23.5 -19.5t-13 -10.5h-70z" />
    <glyph glyph-name="Cdotaccent" unicode="&#x10a;" horiz-adv-x="656" 
d="M361 680q85 0 151.5 -39t101.5 -112l-82 -30q-23 45 -66.5 73.5t-109.5 28.5q-44 0 -82.5 -17t-67 -50.5t-44.5 -83.5t-16 -115q0 -63 15.5 -112.5t44 -84t67.5 -53t86 -18.5q66 0 110 28t67 74l82 -30q-36 -75 -106 -113t-159 -38q-72 0 -128 25.5t-95 71.5t-59.5 110
t-20.5 140q0 78 22 141.5t62.5 109t98 70t128.5 24.5zM307 796q0 23 15.5 38.5t38.5 15.5t38.5 -15.5t15.5 -38.5t-15.5 -38.5t-38.5 -15.5t-38.5 15.5t-15.5 38.5z" />
    <glyph glyph-name="cdotaccent" unicode="&#x10b;" horiz-adv-x="500" 
d="M278 504q67 0 115 -33t72 -79l-77 -28q-17 30 -47.5 48t-68.5 18q-28 0 -54 -11t-45.5 -33.5t-31.5 -57t-12 -81.5t12 -81.5t32 -57.5t45.5 -34.5t53.5 -11.5q41 0 71 18.5t47 46.5l77 -28q-28 -48 -80 -79.5t-118 -31.5q-53 0 -96 19t-73 53.5t-46 82t-16 103.5t17 103
t48 81.5t75.5 54t99.5 19.5zM223 644q0 23 15.5 38.5t38.5 15.5t38.5 -15.5t15.5 -38.5t-15.5 -38.5t-38.5 -15.5t-38.5 15.5t-15.5 38.5z" />
    <glyph glyph-name="Ccaron" unicode="&#x10c;" horiz-adv-x="656" 
d="M361 680q85 0 151.5 -39t101.5 -112l-82 -30q-23 45 -66.5 73.5t-109.5 28.5q-44 0 -82.5 -17t-67 -50.5t-44.5 -83.5t-16 -115q0 -63 15.5 -112.5t44 -84t67.5 -53t86 -18.5q66 0 110 28t67 74l82 -30q-36 -75 -106 -113t-159 -38q-72 0 -128 25.5t-95 71.5t-59.5 110
t-20.5 140q0 78 22 141.5t62.5 109t98 70t128.5 24.5zM292 861l67 -61l68 61h94l-112 -101q-11 -10 -23.5 -14.5t-25.5 -4.5q-30 0 -50 19l-112 101h94z" />
    <glyph glyph-name="ccaron" unicode="&#x10d;" horiz-adv-x="500" 
d="M278 504q67 0 115 -33t72 -79l-77 -28q-17 30 -47.5 48t-68.5 18q-28 0 -54 -11t-45.5 -33.5t-31.5 -57t-12 -81.5t12 -81.5t32 -57.5t45.5 -34.5t53.5 -11.5q41 0 71 18.5t47 46.5l77 -28q-28 -48 -80 -79.5t-118 -31.5q-53 0 -96 19t-73 53.5t-46 82t-16 103.5t17 103
t48 81.5t75.5 54t99.5 19.5zM209 689l67 -61l68 61h94l-112 -101q-11 -10 -23.5 -14.5t-25.5 -4.5q-30 0 -50 19l-112 101h94z" />
    <glyph glyph-name="Dcaron" unicode="&#x10e;" horiz-adv-x="673" 
d="M76 668h182q80 0 146.5 -16.5t115.5 -55t76 -102.5t27 -159q0 -96 -27 -160.5t-76 -103t-115.5 -55t-146.5 -16.5h-182v668zM170 589v-510h86q52 0 100.5 8t86.5 34.5t61 77.5t23 136t-23 135t-61 76.5t-86.5 34.5t-100.5 8h-86zM259 861l67 -61l68 61h94l-112 -101
q-11 -10 -23.5 -14.5t-25.5 -4.5q-30 0 -50 19l-112 101h94z" />
    <glyph glyph-name="dcaron" unicode="&#x10f;" horiz-adv-x="597" 
d="M251 504q59 0 98.5 -23.5t62.5 -62.5v250h84v-481q0 -25 2 -73t15 -114h-79l-22 75q-23 -40 -62.5 -63.5t-98.5 -23.5q-42 0 -81 17.5t-68 50.5t-46.5 81t-17.5 109t17.5 109t46.5 81t68 50.5t81 17.5zM132 246q0 -89 38.5 -137.5t102.5 -48.5t102.5 48.5t38.5 137.5
t-38.5 137.5t-102.5 48.5t-102.5 -48.5t-38.5 -137.5zM537 496q1 5 4 26t7 46.5t8 49t7 32.5q2 8 10.5 18.5t25.5 10.5q18 0 30 -13.5t7 -35.5l-50 -134h-49z" />
    <glyph glyph-name="Dcroat" unicode="&#x110;" horiz-adv-x="732" 
d="M40 303v80h95v285h182q80 0 146.5 -16.5t115.5 -55t76 -102.5t27 -159q0 -96 -27 -160.5t-76 -103t-115.5 -55t-146.5 -16.5h-182v303h-95zM229 303v-224h86q52 0 100.5 8t86.5 34.5t61 77.5t23 136t-23 135t-61 76.5t-86.5 34.5t-100.5 8h-86v-206h140v-80h-140z" />
    <glyph glyph-name="dcroat" unicode="&#x111;" horiz-adv-x="603" 
d="M251 504q59 0 98.5 -23.5t62.5 -62.5v130h-163v67h163v53h84v-53h82v-67h-82v-361q0 -25 2 -73t15 -114h-79l-22 75q-23 -40 -62.5 -63.5t-98.5 -23.5q-42 0 -81 17.5t-68 50.5t-46.5 81t-17.5 109t17.5 109t46.5 81t68 50.5t81 17.5zM132 246q0 -89 38.5 -137.5
t102.5 -48.5t102.5 48.5t38.5 137.5t-38.5 137.5t-102.5 48.5t-102.5 -48.5t-38.5 -137.5z" />
    <glyph glyph-name="Emacron" unicode="&#x112;" horiz-adv-x="567" 
d="M76 0v668h453v-81h-359v-203h265v-81h-265v-222h359v-81h-453zM164 829h276v-67h-276v67z" />
    <glyph glyph-name="emacron" unicode="&#x113;" 
d="M279 504q59 0 104 -23.5t74.5 -62.5t43 -89.5t9.5 -103.5h-382q2 -47 17.5 -78.5t38 -50t48.5 -26.5t49 -8q42 0 70.5 13t45.5 36l81 -24q-27 -44 -77 -71.5t-120 -27.5q-58 0 -103.5 20t-76.5 55t-47 82t-16 102q0 59 18.5 106.5t51 81t76.5 51.5t95 18zM421 292
q0 26 -10 51.5t-28.5 45t-44.5 31.5t-59 12q-28 0 -54 -8t-46 -24.5t-33.5 -43t-16.5 -64.5h292zM141 668h276v-67h-276v67z" />
    <glyph glyph-name="Edotaccent" unicode="&#x116;" horiz-adv-x="567" 
d="M76 0v668h453v-81h-359v-203h265v-81h-265v-222h359v-81h-453zM249 816q0 23 15.5 38.5t38.5 15.5t38.5 -15.5t15.5 -38.5t-15.5 -38.5t-38.5 -15.5t-38.5 15.5t-15.5 38.5z" />
    <glyph glyph-name="edotaccent" unicode="&#x117;" 
d="M279 504q59 0 104 -23.5t74.5 -62.5t43 -89.5t9.5 -103.5h-382q2 -47 17.5 -78.5t38 -50t48.5 -26.5t49 -8q42 0 70.5 13t45.5 36l81 -24q-27 -44 -77 -71.5t-120 -27.5q-58 0 -103.5 20t-76.5 55t-47 82t-16 102q0 59 18.5 106.5t51 81t76.5 51.5t95 18zM421 292
q0 26 -10 51.5t-28.5 45t-44.5 31.5t-59 12q-28 0 -54 -8t-46 -24.5t-33.5 -43t-16.5 -64.5h292zM225 644q0 23 15.5 38.5t38.5 15.5t38.5 -15.5t15.5 -38.5t-15.5 -38.5t-38.5 -15.5t-38.5 15.5t-15.5 38.5z" />
    <glyph glyph-name="Eogonek" unicode="&#x118;" horiz-adv-x="567" 
d="M76 0v668h453v-81h-359v-203h265v-81h-265v-222h359v-81h-453zM409 0h100q-42 -15 -64.5 -31.5t-22.5 -42.5q0 -21 14 -31t35 -10t38 8v-54q-34 -12 -63 -12q-45 0 -69.5 25t-24.5 57q0 36 18.5 58t38.5 33z" />
    <glyph glyph-name="eogonek" unicode="&#x119;" 
d="M279 504q59 0 104 -23.5t74.5 -62.5t43 -89.5t9.5 -103.5h-382q2 -47 17.5 -78.5t38 -50t48.5 -26.5t49 -8q42 0 70.5 13t45.5 36l81 -24q-31 -49 -87 -76q-67 -39 -67 -81q0 -24 14 -34.5t35 -10.5t38 8v-54q-34 -12 -63 -12q-45 0 -69.5 25.5t-24.5 62.5q0 23 8 41
t22 32q-58 0 -104 19t-77.5 53.5t-48 82t-16.5 104.5q0 59 18.5 106.5t51 81t76.5 51.5t95 18zM421 292q0 26 -10 51.5t-28.5 45t-44.5 31.5t-59 12q-28 0 -54 -8t-46 -24.5t-33.5 -43t-16.5 -64.5h292z" />
    <glyph glyph-name="Ecaron" unicode="&#x11a;" horiz-adv-x="567" 
d="M76 0v668h453v-81h-359v-203h265v-81h-265v-222h359v-81h-453zM235 861l67 -61l68 61h94l-112 -101q-11 -10 -23.5 -14.5t-25.5 -4.5q-30 0 -50 19l-112 101h94z" />
    <glyph glyph-name="ecaron" unicode="&#x11b;" 
d="M279 504q59 0 104 -23.5t74.5 -62.5t43 -89.5t9.5 -103.5h-382q2 -47 17.5 -78.5t38 -50t48.5 -26.5t49 -8q42 0 70.5 13t45.5 36l81 -24q-27 -44 -77 -71.5t-120 -27.5q-58 0 -103.5 20t-76.5 55t-47 82t-16 102q0 59 18.5 106.5t51 81t76.5 51.5t95 18zM421 292
q0 26 -10 51.5t-28.5 45t-44.5 31.5t-59 12q-28 0 -54 -8t-46 -24.5t-33.5 -43t-16.5 -64.5h292zM212 689l67 -61l68 61h94l-112 -101q-11 -10 -23.5 -14.5t-25.5 -4.5q-30 0 -50 19l-112 101h94z" />
    <glyph glyph-name="Gbreve" unicode="&#x11e;" horiz-adv-x="710" 
d="M361 680q85 0 152 -39t102 -112l-83 -30q-23 45 -66.5 73.5t-109.5 28.5q-44 0 -82.5 -17t-67 -50.5t-44.5 -83.5t-16 -115q0 -63 15.5 -112.5t43 -84t66.5 -53t85 -18.5q33 0 68 8t63.5 28t47 53.5t18.5 85.5v22h-195v81h284v-345h-54l-25 84q-32 -51 -87.5 -73.5
t-123.5 -22.5q-72 0 -128 25.5t-95 71.5t-59 110t-20 140q0 78 22 141.5t62.5 109t98 70t128.5 24.5zM508 861q-11 -51 -52 -85.5t-95 -34.5q-55 0 -95.5 34.5t-51.5 85.5h69q9 -23 30 -38t48 -15q26 0 47 15t31 38h69z" />
    <glyph glyph-name="gbreve" unicode="&#x11f;" horiz-adv-x="560" 
d="M248 504q60 0 97.5 -23.5t60.5 -62.5l23 78h61v-449q0 -37 -2.5 -70.5t-14.5 -62.5t-36.5 -52t-67.5 -38q-45 -16 -95 -16q-30 0 -60.5 6.5t-56.5 20.5t-46 36t-30 53l84 23q14 -39 46 -52t63 -13q19 0 34 3t22 5q46 15 61 46t15 92v66q-23 -39 -60.5 -62t-97.5 -23
q-41 0 -79 16t-67 47.5t-46.5 77.5t-17.5 106t17.5 106t46.5 77.5t67 48t79 16.5zM129 256q0 -85 39 -131t101 -46q28 0 53.5 10t44.5 31.5t30.5 55t11.5 80.5t-11.5 80.5t-30.5 54.5t-44.5 31t-53.5 10q-62 0 -101 -45.5t-39 -130.5zM416 689q-11 -51 -52 -85.5t-95 -34.5
q-55 0 -95.5 34.5t-51.5 85.5h69q9 -23 30 -38t48 -15q26 0 47 15t31 38h69z" />
    <glyph glyph-name="Gdotaccent" unicode="&#x120;" horiz-adv-x="710" 
d="M361 680q85 0 152 -39t102 -112l-83 -30q-23 45 -66.5 73.5t-109.5 28.5q-44 0 -82.5 -17t-67 -50.5t-44.5 -83.5t-16 -115q0 -63 15.5 -112.5t43 -84t66.5 -53t85 -18.5q33 0 68 8t63.5 28t47 53.5t18.5 85.5v22h-195v81h284v-345h-54l-25 84q-32 -51 -87.5 -73.5
t-123.5 -22.5q-72 0 -128 25.5t-95 71.5t-59 110t-20 140q0 78 22 141.5t62.5 109t98 70t128.5 24.5zM304 816q0 23 15.5 38.5t38.5 15.5t38.5 -15.5t15.5 -38.5t-15.5 -38.5t-38.5 -15.5t-38.5 15.5t-15.5 38.5z" />
    <glyph glyph-name="gdotaccent" unicode="&#x121;" horiz-adv-x="560" 
d="M248 504q60 0 97.5 -23.5t60.5 -62.5l23 78h61v-449q0 -37 -2.5 -70.5t-14.5 -62.5t-36.5 -52t-67.5 -38q-45 -16 -95 -16q-30 0 -60.5 6.5t-56.5 20.5t-46 36t-30 53l84 23q14 -39 46 -52t63 -13q19 0 34 3t22 5q46 15 61 46t15 92v66q-23 -39 -60.5 -62t-97.5 -23
q-41 0 -79 16t-67 47.5t-46.5 77.5t-17.5 106t17.5 106t46.5 77.5t67 48t79 16.5zM129 256q0 -85 39 -131t101 -46q28 0 53.5 10t44.5 31.5t30.5 55t11.5 80.5t-11.5 80.5t-30.5 54.5t-44.5 31t-53.5 10q-62 0 -101 -45.5t-39 -130.5zM220 645q0 23 15.5 38.5t38.5 15.5
t38.5 -15.5t15.5 -38.5t-15.5 -38.5t-38.5 -15.5t-38.5 15.5t-15.5 38.5z" />
    <glyph glyph-name="uni0122" unicode="&#x122;" horiz-adv-x="710" 
d="M361 680q85 0 152 -39t102 -112l-83 -30q-23 45 -66.5 73.5t-109.5 28.5q-44 0 -82.5 -17t-67 -50.5t-44.5 -83.5t-16 -115q0 -63 15.5 -112.5t43 -84t66.5 -53t85 -18.5q33 0 68 8t63.5 28t47 53.5t18.5 85.5v22h-195v81h284v-345h-54l-25 84q-32 -51 -87.5 -73.5
t-123.5 -22.5q-72 0 -128 25.5t-95 71.5t-59 110t-20 140q0 78 22 141.5t62.5 109t98 70t128.5 24.5zM261 -216q12 0 28 2t31 9t25 21t10 37q0 20 -11 37.5t-39 27.5l60 26q30 -16 43 -39.5t13 -47.5q0 -48 -33.5 -77.5t-86.5 -29.5z" />
    <glyph glyph-name="uni0123" unicode="&#x123;" horiz-adv-x="560" 
d="M248 504q60 0 97.5 -23.5t60.5 -62.5l23 78h61v-449q0 -37 -2.5 -70.5t-14.5 -62.5t-36.5 -52t-67.5 -38q-45 -16 -95 -16q-30 0 -60.5 6.5t-56.5 20.5t-46 36t-30 53l84 23q14 -39 46 -52t63 -13q19 0 34 3t22 5q46 15 61 46t15 92v66q-23 -39 -60.5 -62t-97.5 -23
q-41 0 -79 16t-67 47.5t-46.5 77.5t-17.5 106t17.5 106t46.5 77.5t67 48t79 16.5zM129 256q0 -85 39 -131t101 -46q28 0 53.5 10t44.5 31.5t30.5 55t11.5 80.5t-11.5 80.5t-30.5 54.5t-44.5 31t-53.5 10q-62 0 -101 -45.5t-39 -130.5zM351.003 738.986
q-11.999 0 -27.998 -1.99902q-15.999 -2 -30.998 -9q-14.999 -6.99902 -24.998 -20.999q-10 -13.999 -10 -36.9971q0 -19.999 11 -37.498q10.999 -17.499 38.9971 -27.498l-59.9961 -25.999q-29.998 16 -42.9971 39.498q-13 23.499 -13 47.4971q0 47.9971 33.498 77.4951
t86.4951 29.498z" />
    <glyph glyph-name="Hbar" unicode="&#x126;" horiz-adv-x="710" 
d="M624 504v-504h-94v303h-350v-303h-94v504h-76v79h76v85h94v-85h350v85h94v-85h76v-79h-76zM180 504v-120h350v120h-350z" />
    <glyph glyph-name="hbar" unicode="&#x127;" horiz-adv-x="581" 
d="M189 548v-127q21 35 59 59t101 24q90 0 127 -52.5t37 -137.5v-314h-84v289q0 29 -3.5 54.5t-15 45.5t-33 31.5t-57.5 11.5q-61 0 -96 -41.5t-35 -121.5v-269h-84v548h-85v67h85v53h84v-53h160v-67h-160z" />
    <glyph glyph-name="Imacron" unicode="&#x12a;" horiz-adv-x="414" 
d="M66 594v74h282v-74h-94v-520h94v-74h-282v74h94v520h-94zM69 829h276v-67h-276v67z" />
    <glyph glyph-name="imacron" unicode="&#x12b;" horiz-adv-x="278" 
d="M114 429h-69v67h153v-496h-84v429zM13 668h276v-67h-276v67z" />
    <glyph glyph-name="Iogonek" unicode="&#x12e;" horiz-adv-x="414" 
d="M66 594v74h282v-74h-94v-520h94v-74h-282v74h94v520h-94zM168 0h100q-42 -15 -64.5 -31.5t-22.5 -42.5q0 -21 14 -31t35 -10t38 8v-54q-34 -12 -63 -12q-45 0 -69.5 25t-24.5 57q0 36 18.5 58t38.5 33z" />
    <glyph glyph-name="iogonek" unicode="&#x12f;" horiz-adv-x="278" 
d="M45 496h153v-496h-84v429h-69v67zM94 653q0 26 18 44t44 18t44.5 -18t18.5 -44t-18.5 -44.5t-44.5 -18.5t-44 18.5t-18 44.5zM114 0h77q-51 -19 -69 -37.5t-18 -37.5q0 -20 14 -30t35 -10t38 8v-54q-34 -12 -63 -12q-45 0 -69.5 25t-24.5 57q0 31 21.5 56.5t58.5 34.5z
" />
    <glyph glyph-name="dotlessi" unicode="&#x131;" horiz-adv-x="278" 
d="M114 429h-69v67h153v-496h-84v429z" />
    <glyph glyph-name="uni0136" unicode="&#x136;" horiz-adv-x="627" 
d="M76 0v668h94v-336l301 336h117l-255 -279l284 -389h-115l-232 320l-100 -110v-210h-94zM209 -216q12 0 28 2t31 9t25 21t10 37q0 20 -11 37.5t-39 27.5l60 26q30 -16 43 -39.5t13 -47.5q0 -48 -33.5 -77.5t-86.5 -29.5z" />
    <glyph glyph-name="uni0137" unicode="&#x137;" horiz-adv-x="490" 
d="M70 0v668h84v-395l200 223h101l-187 -205l212 -291h-103l-165 229l-58 -63v-166h-84zM146 -216q12 0 28 2t31 9t25 21t10 37q0 20 -11 37.5t-39 27.5l60 26q30 -16 43 -39.5t13 -47.5q0 -48 -33.5 -77.5t-86.5 -29.5z" />
    <glyph glyph-name="uni013B" unicode="&#x13b;" 
d="M76 668h94v-587h359v-81h-453v668zM199 -217q12 0 28 2t31 9t25 21t10 37q0 20 -11 37.5t-39 27.5l60 26q30 -16 43 -39.5t13 -47.5q0 -48 -33.5 -77.5t-86.5 -29.5z" />
    <glyph glyph-name="uni013C" unicode="&#x13c;" horiz-adv-x="239" 
d="M70 124v543h84v-529q0 -38 8 -51t43 -13h19v-74h-37q-36 0 -58.5 5t-35.5 18.5t-18 37.5t-5 63zM35 -216q12 0 28 2t31 9t25 21t10 37q0 20 -11 37.5t-39 27.5l60 26q30 -16 43 -39.5t13 -47.5q0 -48 -33.5 -77.5t-86.5 -29.5z" />
    <glyph glyph-name="Lcaron" unicode="&#x13d;" 
d="M76 668h94v-587h359v-81h-453v668zM229 496q1 5 4 26t7 46.5t8 49t7 32.5q2 8 10.5 18.5t25.5 10.5q18 0 30 -13.5t7 -35.5l-50 -134h-49z" />
    <glyph glyph-name="lcaron" unicode="&#x13e;" horiz-adv-x="257" 
d="M70 124v543h84v-529q0 -38 8 -51t43 -13h19v-74h-37q-36 0 -58.5 5t-35.5 18.5t-18 37.5t-5 63zM196 496q1 5 4 26t7 46.5t8 49t7 32.5q2 8 10.5 18.5t25.5 10.5q18 0 30 -13.5t7 -35.5l-50 -134h-49z" />
    <glyph glyph-name="Lslash" unicode="&#x141;" horiz-adv-x="573" 
d="M20 287l90 53v329h94v-272l180 108v-71l-180 -108v-245h359v-81h-453v270l-90 -54v71z" />
    <glyph glyph-name="lslash" unicode="&#x142;" horiz-adv-x="237" 
d="M15 312l53 32v324h84v-274l70 42v-71l-70 -42v-184q0 -39 8 -52t44 -13h18v-74h-36q-36 0 -59 5t-36 18.5t-18 38t-5 62.5v149l-53 -31v70z" />
    <glyph glyph-name="Nacute" unicode="&#x143;" horiz-adv-x="689" 
d="M76 0v668h139l304 -568v568h94v-668h-138l-305 571v-571h-94zM319 745q3 3 18 18.5t33 33.5l34 34l22 22q14 12 29 12t25.5 -10.5t10.5 -25.5q0 -19 -16 -32q-7 -5 -19.5 -13.5t-25 -16.5t-23 -14t-12.5 -8h-76z" />
    <glyph glyph-name="nacute" unicode="&#x144;" horiz-adv-x="546" 
d="M132 496l22 -75q21 35 59 59t101 24q90 0 127 -52.5t37 -137.5v-314h-84v289q0 29 -3.5 54.5t-15 45.5t-33 31.5t-57.5 11.5q-61 0 -96 -41.5t-35 -121.5v-269h-84v496h62zM245 571q3 4 16 21t28.5 37t30 39t21.5 26q10 13 28 13q16 0 27 -11t11 -27q0 -12 -13 -28
q-5 -7 -17.5 -18l-25 -22t-23.5 -19.5t-13 -10.5h-70z" />
    <glyph glyph-name="uni0145" unicode="&#x145;" horiz-adv-x="689" 
d="M76 0v668h139l304 -568v568h94v-668h-138l-305 571v-571h-94zM259 -216q12 0 28 2t31 9t25 21t10 37q0 20 -11 37.5t-39 27.5l60 26q30 -16 43 -39.5t13 -47.5q0 -48 -33.5 -77.5t-86.5 -29.5z" />
    <glyph glyph-name="uni0146" unicode="&#x146;" horiz-adv-x="546" 
d="M132 496l22 -75q21 35 59 59t101 24q90 0 127 -52.5t37 -137.5v-314h-84v289q0 29 -3.5 54.5t-15 45.5t-33 31.5t-57.5 11.5q-61 0 -96 -41.5t-35 -121.5v-269h-84v496h62zM187 -216q12 0 28 2t31 9t25 21t10 37q0 20 -11 37.5t-39 27.5l60 26q30 -16 43 -39.5t13 -47.5
q0 -48 -33.5 -77.5t-86.5 -29.5z" />
    <glyph glyph-name="Ncaron" unicode="&#x147;" horiz-adv-x="689" 
d="M76 0v668h139l304 -568v568h94v-668h-138l-305 571v-571h-94zM277 861l67 -61l68 61h94l-112 -101q-11 -10 -23.5 -14.5t-25.5 -4.5q-30 0 -50 19l-112 101h94z" />
    <glyph glyph-name="ncaron" unicode="&#x148;" horiz-adv-x="546" 
d="M132 496l22 -75q21 35 59 59t101 24q90 0 127 -52.5t37 -137.5v-314h-84v289q0 29 -3.5 54.5t-15 45.5t-33 31.5t-57.5 11.5q-61 0 -96 -41.5t-35 -121.5v-269h-84v496h62zM205 689l67 -61l68 61h94l-112 -101q-11 -10 -23.5 -14.5t-25.5 -4.5q-30 0 -50 19l-112 101h94z
" />
    <glyph glyph-name="Ohungarumlaut" unicode="&#x150;" horiz-adv-x="727" 
d="M50 335q0 75 22 138.5t62.5 109.5t98.5 71.5t130 25.5t130.5 -25.5t99 -71.5t62.5 -109.5t22 -138.5q0 -76 -22 -139.5t-62.5 -109.5t-99 -72t-130.5 -26t-130 26t-98.5 72t-62.5 109.5t-22 139.5zM146 335q0 -65 17 -115t46 -84t69 -51.5t85 -17.5q46 0 85.5 17.5
t69 51.5t46.5 84t17 115t-17 114.5t-46.5 83t-69 51t-85.5 17.5q-45 0 -85 -17.5t-69 -51t-46 -83t-17 -114.5zM263 744l16 22l80 101q10 13 28 13q16 0 27 -11t11 -27q0 -7 -2 -14t-9 -13l-81 -71h-70zM409 744l16 22l80 101q10 13 28 13q15 0 26.5 -11.5t11.5 -26.5
q0 -7 -2 -14t-9 -13l-81 -71h-70z" />
    <glyph glyph-name="ohungarumlaut" unicode="&#x151;" horiz-adv-x="552" 
d="M38 246q0 67 21 116t55 80.5t76.5 46.5t85.5 15t85.5 -15t76.5 -46.5t55 -80.5t21 -116t-21 -116t-55 -80.5t-76.5 -46.5t-85.5 -15t-85.5 15t-76.5 46.5t-55 80.5t-21 116zM128 246q0 -48 13 -82.5t34 -57t47.5 -33.5t53.5 -11t53.5 11t47.5 33.5t34 57t13 82.5t-13 83
t-34 57.5t-47.5 33t-53.5 10.5t-53.5 -10.5t-47.5 -33t-34 -57.5t-13 -83zM160 572l16 22l80 101q10 13 28 13q16 0 27 -11t11 -27q0 -7 -2 -14t-9 -13l-81 -71h-70zM306 572l16 22l80 101q10 13 28 13q15 0 26.5 -11.5t11.5 -26.5q0 -7 -2 -14t-9 -13l-81 -71h-70z" />
    <glyph glyph-name="OE" unicode="&#x152;" horiz-adv-x="1052" 
d="M363 680q68 0 122.5 -22t95.5 -61v72h433v-81h-359v-203h265v-81h-265v-223h359v-81h-433v75q-41 -42 -95.5 -64.5t-122.5 -22.5q-72 0 -130 26t-98.5 72t-62.5 109.5t-22 139.5t22 139.5t62.5 109t98.5 71t130 25.5zM146 335q0 -64 17 -114t46 -83.5t69 -51t85 -17.5
t84.5 17t69.5 50.5t47 83t17 114.5q0 70 -18.5 120.5t-49 83.5t-70 48.5t-80.5 15.5q-45 0 -85 -17.5t-69 -51t-46 -83.5t-17 -115z" />
    <glyph glyph-name="oe" unicode="&#x153;" horiz-adv-x="927" 
d="M276 505q55 0 107.5 -24.5t87.5 -76.5q32 48 83 74.5t112 26.5q60 0 105 -24t74.5 -63t43 -89.5t9.5 -103.5h-382q2 -47 17.5 -78.5t38 -50t48.5 -26.5t49 -8q42 0 70 13t46 36l81 -24q-28 -43 -77.5 -71t-119.5 -28q-69 0 -119 27t-80 73q-35 -51 -87.5 -75.5
t-106.5 -24.5q-43 0 -85.5 15t-76.5 46.5t-55 80.5t-21 116q0 68 21 116.5t55 80.5t76.5 47t85.5 15zM276 62q27 0 53.5 11t47.5 33.5t34 57t13 82.5t-13 83t-34 57.5t-47.5 33.5t-53.5 11t-53.5 -11t-48 -33.5t-34.5 -57.5t-13 -83t13 -82.5t34.5 -57t48 -33.5t53.5 -11z
M809 292q-1 27 -11 52t-28 45t-44.5 32t-59.5 12q-28 0 -53.5 -8t-46 -25t-33.5 -43.5t-16 -64.5h292z" />
    <glyph glyph-name="Racute" unicode="&#x154;" horiz-adv-x="618" 
d="M288 668q61 0 112 -7.5t88 -28.5t57.5 -58.5t20.5 -97.5q0 -34 -7 -64.5t-27.5 -55.5t-56.5 -42.5t-94 -25.5l207 -288h-115l-203 281h-100v-281h-94v668h212zM170 360h125q37 0 69 3.5t55.5 15t37 34t13.5 61.5t-13.5 61.5t-37 34.5t-55.5 15.5t-69 3.5h-125v-229z
M263 744q3 3 18 18.5t33 33.5l34 34l22 22q14 12 29 12t25.5 -10.5t10.5 -25.5q0 -19 -16 -32q-7 -5 -19.5 -13.5t-25 -16.5t-23 -14t-12.5 -8h-76z" />
    <glyph glyph-name="racute" unicode="&#x155;" horiz-adv-x="340" 
d="M70 496h61l27 -92q26 45 70 72.5t107 27.5v-87q-102 0 -141.5 -52.5t-39.5 -151.5v-213h-84v496zM141 571q3 4 16 21t28.5 37t30 39t21.5 26q10 13 28 13q16 0 27 -11t11 -27q0 -12 -13 -28q-5 -7 -17.5 -18l-25 -22t-23.5 -19.5t-13 -10.5h-70z" />
    <glyph glyph-name="Rcaron" unicode="&#x158;" horiz-adv-x="618" 
d="M288 668q61 0 112 -7.5t88 -28.5t57.5 -58.5t20.5 -97.5q0 -34 -7 -64.5t-27.5 -55.5t-56.5 -42.5t-94 -25.5l207 -288h-115l-203 281h-100v-281h-94v668h212zM170 360h125q37 0 69 3.5t55.5 15t37 34t13.5 61.5t-13.5 61.5t-37 34.5t-55.5 15.5t-69 3.5h-125v-229z
M242 861l67 -61l68 61h94l-112 -101q-11 -10 -23.5 -14.5t-25.5 -4.5q-30 0 -50 19l-112 101h94z" />
    <glyph glyph-name="rcaron" unicode="&#x159;" horiz-adv-x="340" 
d="M70 496h61l27 -92q26 45 70 72.5t107 27.5v-87q-102 0 -141.5 -52.5t-39.5 -151.5v-213h-84v496zM139 689l67 -61l68 61h94l-112 -101q-11 -10 -23.5 -14.5t-25.5 -4.5q-30 0 -50 19l-112 101h94z" />
    <glyph glyph-name="Sacute" unicode="&#x15a;" horiz-adv-x="596" 
d="M127 172q9 -27 26.5 -47t41 -32.5t51 -19t54.5 -6.5q30 0 58.5 7.5t50 22t35 37t13.5 52.5q0 45 -38 71t-133 45q-39 8 -81 19.5t-77.5 33t-58.5 56.5t-23 90q0 42 21 75.5t55.5 56.5t78.5 35t90 12q71 0 135.5 -30t96.5 -95l-86 -25q-20 35 -62 53t-88 18
q-27 0 -53 -6.5t-46.5 -19.5t-32.5 -32.5t-12 -45.5q0 -28 14 -46t38 -30t55 -20t65 -15q44 -9 87 -22t77 -35t55.5 -57.5t21.5 -89.5q0 -46 -22 -82.5t-58.5 -61t-83.5 -37.5t-96 -13q-41 0 -81.5 9.5t-75 29t-60.5 49.5t-39 70zM252 744q3 3 18 18.5t33 33.5l34 34l22 22
q14 12 29 12t25.5 -10.5t10.5 -25.5q0 -19 -16 -32q-7 -5 -19.5 -13.5t-25 -16.5t-23 -14t-12.5 -8h-76z" />
    <glyph glyph-name="sacute" unicode="&#x15b;" horiz-adv-x="471" 
d="M112 142q11 -44 48.5 -63.5t78.5 -19.5q22 0 43 5t37.5 15t26.5 23.5t10 30.5q0 34 -23.5 51t-58.5 26.5t-75.5 16.5t-75.5 21.5t-58.5 42t-23.5 76.5q0 33 16.5 59t43 43.5t61 26.5t70.5 9q59 0 111 -24.5t75 -76.5l-79 -29q-13 30 -45.5 44.5t-67.5 14.5q-38 0 -69 -17
t-31 -49q0 -30 23.5 -44t58.5 -22.5t75.5 -15.5t75.5 -23t58.5 -45t23.5 -82q0 -35 -17 -62.5t-45.5 -46.5t-64.5 -29t-75 -10q-32 0 -64 7.5t-60 22.5t-50 38.5t-34 55.5zM198 570q3 4 16 21t28.5 37t30 39t21.5 26q10 13 28 13q16 0 27 -11t11 -27q0 -12 -13 -28
q-5 -7 -17.5 -18l-25 -22t-23.5 -19.5t-13 -10.5h-70z" />
    <glyph glyph-name="Scedilla" unicode="&#x15e;" horiz-adv-x="596" 
d="M127 172q9 -27 26.5 -47t41 -32.5t51 -19t54.5 -6.5q30 0 58.5 7.5t50 22t35 37t13.5 52.5q0 45 -38 71t-133 45q-39 8 -81 19.5t-77.5 33t-58.5 56.5t-23 90q0 42 21 75.5t55.5 56.5t78.5 35t90 12q71 0 135.5 -30t96.5 -95l-86 -25q-20 35 -62 53t-88 18
q-27 0 -53 -6.5t-46.5 -19.5t-32.5 -32.5t-12 -45.5q0 -28 14 -46t38 -30t55 -20t65 -15q44 -9 87 -22t77 -35t55.5 -57.5t21.5 -89.5q0 -46 -22 -82.5t-58.5 -61t-83.5 -37.5t-96 -13q-41 0 -81.5 9.5t-75 29t-60.5 49.5t-39 70zM220 -126q32 -14 58 -14t38.5 11t12.5 23
q0 10 -8.5 17.5t-27.5 7.5q-11 0 -31 -5q-14 -4 -21 3t-7 16q0 5 3 10l51 82l34 -21l-30 -49q8 2 15.5 3t14.5 1q35 0 52 -18.5t17 -42.5q0 -29 -24 -54t-73 -25q-39 0 -88 20z" />
    <glyph glyph-name="scedilla" unicode="&#x15f;" horiz-adv-x="471" 
d="M112 142q11 -44 48.5 -63.5t78.5 -19.5q22 0 43 5t37.5 15t26.5 23.5t10 30.5q0 34 -23.5 51t-58.5 26.5t-75.5 16.5t-75.5 21.5t-58.5 42t-23.5 76.5q0 33 16.5 59t43 43.5t61 26.5t70.5 9q59 0 111 -24.5t75 -76.5l-79 -29q-13 30 -45.5 44.5t-67.5 14.5q-38 0 -69 -17
t-31 -49q0 -30 23.5 -44t58.5 -22.5t75.5 -15.5t75.5 -23t58.5 -45t23.5 -82q0 -35 -17 -62.5t-45.5 -46.5t-64.5 -29t-75 -10q-32 0 -64 7.5t-60 22.5t-50 38.5t-34 55.5zM164 -126q32 -14 58 -14t38.5 11t12.5 23q0 10 -8.5 17.5t-27.5 7.5q-11 0 -31 -5q-14 -4 -21 3
t-7 16q0 5 3 10l51 82l34 -21l-30 -49q8 2 15.5 3t14.5 1q35 0 52 -18.5t17 -42.5q0 -29 -24 -54t-73 -25q-39 0 -88 20z" />
    <glyph glyph-name="Scaron" unicode="&#x160;" horiz-adv-x="596" 
d="M127 172q9 -27 26.5 -47t41 -32.5t51 -19t54.5 -6.5q30 0 58.5 7.5t50 22t35 37t13.5 52.5q0 45 -38 71t-133 45q-39 8 -81 19.5t-77.5 33t-58.5 56.5t-23 90q0 42 21 75.5t55.5 56.5t78.5 35t90 12q71 0 135.5 -30t96.5 -95l-86 -25q-20 35 -62 53t-88 18
q-27 0 -53 -6.5t-46.5 -19.5t-32.5 -32.5t-12 -45.5q0 -28 14 -46t38 -30t55 -20t65 -15q44 -9 87 -22t77 -35t55.5 -57.5t21.5 -89.5q0 -46 -22 -82.5t-58.5 -61t-83.5 -37.5t-96 -13q-41 0 -81.5 9.5t-75 29t-60.5 49.5t-39 70zM231 861l67 -61l68 61h94l-112 -101
q-11 -10 -23.5 -14.5t-25.5 -4.5q-30 0 -50 19l-112 101h94z" />
    <glyph glyph-name="scaron" unicode="&#x161;" horiz-adv-x="471" 
d="M112 142q11 -44 48.5 -63.5t78.5 -19.5q22 0 43 5t37.5 15t26.5 23.5t10 30.5q0 34 -23.5 51t-58.5 26.5t-75.5 16.5t-75.5 21.5t-58.5 42t-23.5 76.5q0 33 16.5 59t43 43.5t61 26.5t70.5 9q59 0 111 -24.5t75 -76.5l-79 -29q-13 30 -45.5 44.5t-67.5 14.5q-38 0 -69 -17
t-31 -49q0 -30 23.5 -44t58.5 -22.5t75.5 -15.5t75.5 -23t58.5 -45t23.5 -82q0 -35 -17 -62.5t-45.5 -46.5t-64.5 -29t-75 -10q-32 0 -64 7.5t-60 22.5t-50 38.5t-34 55.5zM168 689l67 -61l68 61h94l-112 -101q-11 -10 -23.5 -14.5t-25.5 -4.5q-30 0 -50 19l-112 101h94z
" />
    <glyph glyph-name="uni0162" unicode="&#x162;" horiz-adv-x="558" 
d="M10 668h538v-81h-222v-587h-94v587h-222v81zM185 -216q12 0 28 2t31 9t25 21t10 37q0 20 -11 37.5t-39 27.5l60 26q30 -16 43 -39.5t13 -47.5q0 -48 -33.5 -77.5t-86.5 -29.5z" />
    <glyph glyph-name="uni0163" unicode="&#x163;" horiz-adv-x="324" 
d="M104 496v125h84v-125h96v-67h-96v-291q0 -38 7.5 -51t43.5 -13h45v-74h-63q-36 0 -58.5 5t-35.5 18.5t-18 37.5t-5 63v305h-84v67h84zM68 -216q12 0 28 2t31 9t25 21t10 37q0 20 -11 37.5t-39 27.5l60 26q30 -16 43 -39.5t13 -47.5q0 -48 -33.5 -77.5t-86.5 -29.5z" />
    <glyph glyph-name="Tcaron" unicode="&#x164;" horiz-adv-x="558" 
d="M10 668h538v-81h-222v-587h-94v587h-222v81zM212 861l67 -61l68 61h94l-112 -101q-11 -10 -23.5 -14.5t-25.5 -4.5q-30 0 -50 19l-112 101h94z" />
    <glyph glyph-name="tcaron" unicode="&#x165;" horiz-adv-x="324" 
d="M104 496v125h84v-125h96v-67h-96v-291q0 -38 7.5 -51t43.5 -13h45v-74h-63q-36 0 -58.5 5t-35.5 18.5t-18 37.5t-5 63v305h-84v67h84zM235 545q1 5 4 26t7 46.5t8 49t7 32.5q2 8 10.5 18.5t25.5 10.5q18 0 30 -13.5t7 -35.5l-50 -134h-49z" />
    <glyph glyph-name="Umacron" unicode="&#x16a;" horiz-adv-x="690" 
d="M170 668v-396q0 -99 39.5 -151t135.5 -52t135.5 52t39.5 151v396h94v-389q0 -146 -61.5 -218.5t-207.5 -72.5q-145 0 -207 72.5t-62 218.5v389h94zM207 829h276v-67h-276v67z" />
    <glyph glyph-name="umacron" unicode="&#x16b;" horiz-adv-x="536" 
d="M68 497h84v-292q0 -29 3.5 -55t14.5 -45.5t31.5 -31t54.5 -11.5q60 0 93 41t33 121v273h84v-497h-63l-21 72q-21 -36 -57 -60t-98 -24q-43 0 -73.5 14t-49.5 39.5t-27.5 61t-8.5 77.5v317zM129 668h276v-67h-276v67z" />
    <glyph glyph-name="Uring" unicode="&#x16e;" horiz-adv-x="690" 
d="M170 668v-396q0 -99 39.5 -151t135.5 -52t135.5 52t39.5 151v396h94v-389q0 -146 -61.5 -218.5t-207.5 -72.5q-145 0 -207 72.5t-62 218.5v389h94zM347 886q46 0 76.5 -32t30.5 -77t-30.5 -77t-76.5 -32q-47 0 -79 32t-32 77t32 77t79 32zM293 777q0 -21 15 -36t37 -15
t37 15t15 36t-15 36t-37 15t-37 -15t-15 -36z" />
    <glyph glyph-name="uring" unicode="&#x16f;" horiz-adv-x="536" 
d="M68 497h84v-292q0 -29 3.5 -55t14.5 -45.5t31.5 -31t54.5 -11.5q60 0 93 41t33 121v273h84v-497h-63l-21 72q-21 -36 -57 -60t-98 -24q-43 0 -73.5 14t-49.5 39.5t-27.5 61t-8.5 77.5v317zM269 777q46 0 76.5 -32t30.5 -77t-30.5 -77t-76.5 -32q-47 0 -79 32t-32 77
t32 77t79 32zM215 668q0 -21 15 -36t37 -15t37 15t15 36t-15 36t-37 15t-37 -15t-15 -36z" />
    <glyph glyph-name="Uhungarumlaut" unicode="&#x170;" horiz-adv-x="690" 
d="M170 668v-396q0 -99 39.5 -151t135.5 -52t135.5 52t39.5 151v396h94v-389q0 -146 -61.5 -218.5t-207.5 -72.5q-145 0 -207 72.5t-62 218.5v389h94zM240 744l16 22l80 101q10 13 28 13q16 0 27 -11t11 -27q0 -7 -2 -14t-9 -13l-81 -71h-70zM386 744l16 22l80 101
q10 13 28 13q15 0 26.5 -11.5t11.5 -26.5q0 -7 -2 -14t-9 -13l-81 -71h-70z" />
    <glyph glyph-name="uhungarumlaut" unicode="&#x171;" horiz-adv-x="536" 
d="M68 497h84v-292q0 -29 3.5 -55t14.5 -45.5t31.5 -31t54.5 -11.5q60 0 93 41t33 121v273h84v-497h-63l-21 72q-21 -36 -57 -60t-98 -24q-43 0 -73.5 14t-49.5 39.5t-27.5 61t-8.5 77.5v317zM154 572l16 22l80 101q10 13 28 13q16 0 27 -11t11 -27q0 -7 -2 -14t-9 -13
l-81 -71h-70zM300 572l16 22l80 101q10 13 28 13q15 0 26.5 -11.5t11.5 -26.5q0 -7 -2 -14t-9 -13l-81 -71h-70z" />
    <glyph glyph-name="Uogonek" unicode="&#x172;" horiz-adv-x="690" 
d="M170 668v-396q0 -99 39.5 -151t135.5 -52t135.5 52t39.5 151v396h94v-389q0 -146 -61.5 -218.5t-207.5 -72.5q-145 0 -207 72.5t-62 218.5v389h94zM324 0h100q-42 -15 -64.5 -31.5t-22.5 -42.5q0 -21 14 -31t35 -10t38 8v-54q-34 -12 -63 -12q-45 0 -69.5 25t-24.5 57
q0 36 18.5 58t38.5 33z" />
    <glyph glyph-name="uogonek" unicode="&#x173;" horiz-adv-x="536" 
d="M68 180v317h84v-292q0 -29 3.5 -55t14.5 -45.5t31.5 -31t54.5 -11.5q60 0 93 41t33 121v273h84v-497q-51 -19 -69 -37.5t-18 -37.5q0 -20 14 -30t35 -10t38 8v-54q-34 -12 -63 -12q-45 0 -69.5 25t-24.5 57q0 37 24.5 62t68.5 33l-20 68q-21 -36 -57 -60t-98 -24
q-43 0 -73.5 14t-49.5 39.5t-27.5 61t-8.5 77.5z" />
    <glyph glyph-name="Ydieresis" unicode="&#x178;" horiz-adv-x="595" 
d="M10 668h103l185 -323l184 323h103l-240 -409v-259h-94v259zM138 794q0 22 15.5 37.5t38.5 15.5t38.5 -15.5t15.5 -37.5q0 -23 -15.5 -38.5t-38.5 -15.5t-38.5 15.5t-15.5 38.5zM403 847q23 0 38.5 -15.5t15.5 -37.5q0 -23 -15.5 -38.5t-38.5 -15.5q-22 0 -37.5 15.5
t-15.5 38.5q0 22 15.5 37.5t37.5 15.5z" />
    <glyph glyph-name="Zacute" unicode="&#x179;" horiz-adv-x="607" 
d="M44 81l394 506h-379v81h489v-81l-392 -506h407v-81h-519v81zM399 744q3 3 18 18.5t33 33.5l34 34l22 22q14 12 29 12t25.5 -10.5t10.5 -25.5q0 -19 -16 -32q-7 -5 -19.5 -13.5t-25 -16.5t-23 -14t-12.5 -8h-76z" />
    <glyph glyph-name="zacute" unicode="&#x17a;" horiz-adv-x="460" 
d="M40 74l285 348h-276v74h371v-74l-285 -348h295v-74h-390v74zM204 570q3 4 16 21t28.5 37t30 39t21.5 26q10 13 28 13q16 0 27 -11t11 -27q0 -12 -13 -28q-5 -7 -17.5 -18l-25 -22t-23.5 -19.5t-13 -10.5h-70z" />
    <glyph glyph-name="Zdotaccent" unicode="&#x17b;" horiz-adv-x="607" 
d="M44 81l394 506h-379v81h489v-81l-392 -506h407v-81h-519v81zM391 799q0 23 15.5 38.5t38.5 15.5t38.5 -15.5t15.5 -38.5t-15.5 -38.5t-38.5 -15.5t-38.5 15.5t-15.5 38.5z" />
    <glyph glyph-name="zdotaccent" unicode="&#x17c;" horiz-adv-x="460" 
d="M40 74l285 348h-276v74h371v-74l-285 -348h295v-74h-390v74zM176 644q0 23 15.5 38.5t38.5 15.5t38.5 -15.5t15.5 -38.5t-15.5 -38.5t-38.5 -15.5t-38.5 15.5t-15.5 38.5z" />
    <glyph glyph-name="Zcaron" unicode="&#x17d;" horiz-adv-x="607" 
d="M44 81l394 506h-379v81h489v-81l-392 -506h407v-81h-519v81zM377 861l67 -61l68 61h94l-112 -101q-11 -10 -23.5 -14.5t-25.5 -4.5q-30 0 -50 19l-112 101h94z" />
    <glyph glyph-name="zcaron" unicode="&#x17e;" horiz-adv-x="460" 
d="M40 74l285 348h-276v74h371v-74l-285 -348h295v-74h-390v74zM163 689l67 -61l68 61h94l-112 -101q-11 -10 -23.5 -14.5t-25.5 -4.5q-30 0 -50 19l-112 101h94z" />
    <glyph glyph-name="florin" unicode="&#x192;" horiz-adv-x="321" 
d="M25 -165v75q15 -3 26 -3q32 0 45 18.5t13 50.5v453h-84v67h84v74q0 38 5 64t19.5 42t40.5 23t68 7h54v-71h-52q-32 0 -41.5 -13t-9.5 -51v-75h103v-67h-103v-456q0 -43 -9.5 -71t-25 -44.5t-36 -23.5t-42.5 -7q-26 0 -55 8z" />
    <glyph glyph-name="uni0218" unicode="&#x218;" horiz-adv-x="596" 
d="M127 172q9 -27 26.5 -47t41 -32.5t51 -19t54.5 -6.5q30 0 58.5 7.5t50 22t35 37t13.5 52.5q0 45 -38 71t-133 45q-39 8 -81 19.5t-77.5 33t-58.5 56.5t-23 90q0 42 21 75.5t55.5 56.5t78.5 35t90 12q71 0 135.5 -30t96.5 -95l-86 -25q-20 35 -62 53t-88 18
q-27 0 -53 -6.5t-46.5 -19.5t-32.5 -32.5t-12 -45.5q0 -28 14 -46t38 -30t55 -20t65 -15q44 -9 87 -22t77 -35t55.5 -57.5t21.5 -89.5q0 -46 -22 -82.5t-58.5 -61t-83.5 -37.5t-96 -13q-41 0 -81.5 9.5t-75 29t-60.5 49.5t-39 70zM212 -216q12 0 28 2t31 9t25 21t10 37
q0 20 -11 37.5t-39 27.5l60 26q30 -16 43 -39.5t13 -47.5q0 -48 -33.5 -77.5t-86.5 -29.5z" />
    <glyph glyph-name="uni0219" unicode="&#x219;" horiz-adv-x="471" 
d="M112 142q11 -44 48.5 -63.5t78.5 -19.5q22 0 43 5t37.5 15t26.5 23.5t10 30.5q0 34 -23.5 51t-58.5 26.5t-75.5 16.5t-75.5 21.5t-58.5 42t-23.5 76.5q0 33 16.5 59t43 43.5t61 26.5t70.5 9q59 0 111 -24.5t75 -76.5l-79 -29q-13 30 -45.5 44.5t-67.5 14.5q-38 0 -69 -17
t-31 -49q0 -30 23.5 -44t58.5 -22.5t75.5 -15.5t75.5 -23t58.5 -45t23.5 -82q0 -35 -17 -62.5t-45.5 -46.5t-64.5 -29t-75 -10q-32 0 -64 7.5t-60 22.5t-50 38.5t-34 55.5zM150 -216q12 0 28 2t31 9t25 21t10 37q0 20 -11 37.5t-39 27.5l60 26q30 -16 43 -39.5t13 -47.5
q0 -48 -33.5 -77.5t-86.5 -29.5z" />
    <glyph glyph-name="uni021A" unicode="&#x21a;" horiz-adv-x="558" 
d="M10 668h538v-81h-222v-587h-94v587h-222v81zM186 -216q12 0 28 2t31 9t25 21t10 37q0 20 -11 37.5t-39 27.5l60 26q30 -16 43 -39.5t13 -47.5q0 -48 -33.5 -77.5t-86.5 -29.5z" />
    <glyph glyph-name="uni021B" unicode="&#x21b;" horiz-adv-x="324" 
d="M104 496v125h84v-125h96v-67h-96v-291q0 -38 7.5 -51t43.5 -13h45v-74h-63q-36 0 -58.5 5t-35.5 18.5t-18 37.5t-5 63v305h-84v67h84zM76 -216q12 0 28 2t31 9t25 21t10 37q0 20 -11 37.5t-39 27.5l60 26q30 -16 43 -39.5t13 -47.5q0 -48 -33.5 -77.5t-86.5 -29.5z" />
    <glyph glyph-name="circumflex" unicode="&#x2c6;" horiz-adv-x="429" 
d="M53 575l112 101q20 19 50 19q13 0 25.5 -4.5t23.5 -14.5l112 -101h-94l-68 61l-67 -61h-94z" />
    <glyph glyph-name="caron" horiz-adv-x="429" 
d="M147 689l67 -61l68 61h94l-112 -101q-11 -10 -23.5 -14.5t-25.5 -4.5q-30 0 -50 19l-112 101h94z" />
    <glyph glyph-name="breve" horiz-adv-x="399" 
d="M347 689q-11 -51 -52 -85.5t-95 -34.5q-55 0 -95.5 34.5t-51.5 85.5h69q9 -23 30 -38t48 -15q26 0 47 15t31 38h69z" />
    <glyph glyph-name="dotaccent" horiz-adv-x="214" 
d="M53 644q0 23 15.5 38.5t38.5 15.5t38.5 -15.5t15.5 -38.5t-15.5 -38.5t-38.5 -15.5t-38.5 15.5t-15.5 38.5z" />
    <glyph glyph-name="ring" unicode="&#x2da;" horiz-adv-x="253" 
d="M126 777q46 0 76.5 -32t30.5 -77t-30.5 -77t-76.5 -32q-47 0 -79 32t-32 77t32 77t79 32zM72 668q0 -21 15 -36t37 -15t37 15t15 36t-15 36t-37 15t-37 -15t-15 -36z" />
    <glyph glyph-name="ogonek" horiz-adv-x="263" 
d="M133 0h77q-51 -19 -69 -37.5t-18 -37.5q0 -20 14 -30t35 -10t38 8v-54q-34 -12 -63 -12q-45 0 -69.5 25t-24.5 57q0 31 21.5 56.5t58.5 34.5z" />
    <glyph glyph-name="tilde" unicode="&#x2dc;" horiz-adv-x="435" 
d="M53 577q9 54 37.5 79t68.5 25q21 0 37 -6.5t30 -15t27.5 -15t29.5 -6.5q15 0 23.5 6t15.5 17q11 19 29 19q12 0 21.5 -9t9.5 -22q0 -8 -6.5 -20.5t-18.5 -24.5t-30 -20.5t-42 -8.5q-21 0 -37.5 6.5t-31 15t-28 15t-28.5 6.5q-37 0 -42 -41h-65z" />
    <glyph glyph-name="hungarumlaut" horiz-adv-x="414" 
d="M53 572l16 22l80 101q10 13 28 13q16 0 27 -11t11 -27q0 -7 -2 -14t-9 -13l-81 -71h-70zM199 572l16 22l80 101q10 13 28 13q15 0 26.5 -11.5t11.5 -26.5q0 -7 -2 -14t-9 -13l-81 -71h-70z" />
    <glyph glyph-name="uni0326" horiz-adv-x="280" 
d="M54 -216q12 0 28 2t31 9t25 21t10 37q0 20 -11 37.5t-39 27.5l60 26q30 -16 43 -39.5t13 -47.5q0 -48 -33.5 -77.5t-86.5 -29.5z" />
    <glyph glyph-name="endash" unicode="&#x2013;" horiz-adv-x="480" 
d="M41 287h398v-79h-398v79z" />
    <glyph glyph-name="emdash" unicode="&#x2014;" horiz-adv-x="800" 
d="M41 287h718v-79h-718v79z" />
    <glyph glyph-name="quoteleft" unicode="&#x2018;" horiz-adv-x="235" 
d="M53 482q0 12 5 25l62 161h55l-47 -122q23 -4 38.5 -22t15.5 -42q0 -27 -19 -45.5t-45 -18.5q-27 0 -46 19t-19 45z" />
    <glyph glyph-name="quoteright" unicode="&#x2019;" horiz-adv-x="235" 
d="M53 615q0 27 19 46t45 19q27 0 46 -19t19 -45q0 -12 -5 -25l-62 -162h-55l47 123q-23 4 -38.5 21.5t-15.5 41.5z" />
    <glyph glyph-name="quotesinglbase" unicode="&#x201a;" horiz-adv-x="235" 
d="M53 52q0 27 19 46t45 19q27 0 46 -19t19 -45q0 -12 -5 -25l-62 -162h-55l47 123q-23 4 -38.5 21.5t-15.5 41.5z" />
    <glyph glyph-name="quotedblleft" unicode="&#x201c;" horiz-adv-x="398" 
d="M216 482q0 12 5 25l62 161h55l-46 -122q23 -4 38 -22t15 -42q0 -27 -19 -45.5t-45 -18.5q-27 0 -46 19t-19 45zM58 507l62 161h55l-47 -122q23 -4 38.5 -22t15.5 -42q0 -27 -19 -45.5t-45 -18.5q-27 0 -46 19t-19 45q0 12 5 25z" />
    <glyph glyph-name="quotedblright" unicode="&#x201d;" horiz-adv-x="398" 
d="M216 615q0 27 19 46t46 19t45.5 -19t18.5 -45q0 -12 -5 -25l-61 -162h-56l47 123q-23 4 -38.5 21.5t-15.5 41.5zM117 680q27 0 46 -19t19 -45q0 -12 -5 -25l-62 -162h-55l47 123q-23 4 -38.5 21.5t-15.5 41.5q0 27 19 46t45 19z" />
    <glyph glyph-name="quotedblbase" unicode="&#x201e;" horiz-adv-x="398" 
d="M216 52q0 27 19 46t46 19t45.5 -19t18.5 -45q0 -12 -5 -25l-61 -162h-56l47 123q-23 4 -38.5 21.5t-15.5 41.5zM117 117q27 0 46 -19t19 -45q0 -12 -5 -25l-62 -162h-55l47 123q-23 4 -38.5 21.5t-15.5 41.5q0 27 19 46t45 19z" />
    <glyph glyph-name="dagger" unicode="&#x2020;" horiz-adv-x="541" 
d="M40 496h190v172h81v-172h190v-80h-190v-416h-81v416h-190v80z" />
    <glyph glyph-name="daggerdbl" unicode="&#x2021;" horiz-adv-x="541" 
d="M40 172v79h190v165h-190v80h190v172h81v-172h190v-80h-190v-165h190v-79h-190v-172h-81v172h-190z" />
    <glyph glyph-name="bullet" unicode="&#x2022;" horiz-adv-x="438" 
d="M53 254q0 35 13 65t35.5 52.5t53 35.5t64.5 13q35 0 65 -13t52.5 -35.5t35.5 -52.5t13 -65q0 -34 -13 -64.5t-35.5 -53t-52.5 -35.5t-65 -13q-34 0 -64.5 13t-53 35.5t-35.5 53t-13 64.5z" />
    <glyph glyph-name="ellipsis" unicode="&#x2026;" horiz-adv-x="696" 
d="M348 117q27 0 46 -19t19 -46q0 -26 -19 -45t-46 -19t-45.5 19t-18.5 45q0 27 18.5 46t45.5 19zM579 117q26 0 45 -19t19 -46q0 -26 -19 -45t-45 -19q-27 0 -46 19t-19 45q0 27 19 46t46 19zM117 117q27 0 46 -19t19 -46q0 -26 -19 -45t-46 -19q-26 0 -45 19t-19 45
q0 27 19 46t45 19z" />
    <glyph glyph-name="perthousand" unicode="&#x2030;" horiz-adv-x="1328" 
d="M38 498q0 38 14 71t39 57.5t58 39t71 14.5t70.5 -14.5t57.5 -39t39 -57.5t14 -71q0 -37 -14 -70.5t-39 -58t-57.5 -39t-70.5 -14.5t-71 14.5t-58 39t-39 58t-14 70.5zM708 351q38 0 70.5 -14t57.5 -39t39 -58t14 -71q0 -37 -14 -70t-39 -58t-57.5 -39t-70.5 -14t-71 14
t-58 39t-39 58t-14 70q0 38 14 71t39 58t58 39t71 14zM927 169q0 38 14 71t39 58t58 39t71 14t70.5 -14t57.5 -39t39 -58t14 -71q0 -37 -14 -70t-39 -58t-57.5 -39t-70.5 -14t-71 14t-58 39t-39 58t-14 70zM186 0l468 668h88l-468 -668h-88zM1001 169q0 -22 8.5 -41.5
t23 -34t34.5 -23t42 -8.5q45 0 76 31t31 76q0 23 -8.5 42.5t-23 34t-34 23t-41.5 8.5q-45 0 -76.5 -31.5t-31.5 -76.5zM600 169q0 -22 8.5 -41.5t23 -34t34.5 -23t42 -8.5q45 0 76 31t31 76q0 23 -8.5 42.5t-23 34t-34 23t-41.5 8.5q-45 0 -76.5 -31.5t-31.5 -76.5zM112 498
q0 -45 31.5 -76t76.5 -31t76 31t31 76t-31 76t-76 31t-76.5 -31t-31.5 -76z" />
    <glyph glyph-name="guilsinglleft" unicode="&#x2039;" horiz-adv-x="353" 
d="M53 250l148 211h99l-149 -211l149 -210h-99z" />
    <glyph glyph-name="guilsinglright" unicode="&#x203a;" horiz-adv-x="353" 
d="M202 250l-149 211h100l147 -211l-147 -210h-100z" />
    <glyph glyph-name="fraction" unicode="&#x2044;" horiz-adv-x="586" 
d="M483 668h88l-468 -668h-88z" />
    <glyph glyph-name="Euro" unicode="&#x20ac;" horiz-adv-x="664" 
d="M15 377l28 51h63q22 116 95.5 184t185.5 68q78 0 140.5 -39.5t95.5 -112.5l-78 -28q-21 45 -61.5 73t-101.5 28q-66 0 -116 -44t-69 -129h249l-28 -51h-229q-1 -10 -1 -21v-22v-21.5t1 -21.5h182l-28 -51h-146q20 -83 69.5 -128t118.5 -45q60 0 101 27.5t63 72.5l77 -28
q-34 -75 -98.5 -113t-147.5 -38q-112 0 -182.5 69t-91.5 183h-91l28 51h57q-1 11 -1 21.5v21.5v21.5t1 21.5h-85z" />
    <glyph glyph-name="minus" unicode="&#x2212;" horiz-adv-x="602" 
d="M53 288h496v-79h-496v79z" />
    <glyph glyph-name="uni2215" unicode="&#x2215;" horiz-adv-x="598" 
d="M483 669h100l-468 -669h-100z" />
    <glyph glyph-name="grave.case" horiz-adv-x="203" 
d="M16 864q8 0 16 -2.5t15 -10.5l106 -107h-76q-2 2 -12.5 8t-23.5 13.5t-26 16t-19 14.5q-16 14 -16 32q0 15 10.5 25.5t25.5 10.5z" />
    <glyph glyph-name="acute.case" horiz-adv-x="153" 
d="M44 744q3 3 18 18.5t33 33.5l34 34l22 22q14 12 29 12t25.5 -10.5t10.5 -25.5q0 -19 -16 -32q-7 -5 -19.5 -13.5t-25 -16.5t-23 -14t-12.5 -8h-76z" />
    <glyph glyph-name="circumflex.case" horiz-adv-x="325" 
d="M1 747l112 101q20 19 50 19q13 0 25.5 -4.5t23.5 -14.5l112 -101h-94l-68 61l-67 -61h-94z" />
    <glyph glyph-name="dieresis.case" horiz-adv-x="325" 
d="M3 794q0 22 15.5 37.5t38.5 15.5t38.5 -15.5t15.5 -37.5q0 -23 -15.5 -38.5t-38.5 -15.5t-38.5 15.5t-15.5 38.5zM268 847q23 0 38.5 -15.5t15.5 -37.5q0 -23 -15.5 -38.5t-38.5 -15.5q-22 0 -37.5 15.5t-15.5 38.5q0 22 15.5 37.5t37.5 15.5z" />
    <glyph glyph-name="caron.case" horiz-adv-x="325" 
d="M95 861l67 -61l68 61h94l-112 -101q-11 -10 -23.5 -14.5t-25.5 -4.5q-30 0 -50 19l-112 101h94z" />
    <glyph glyph-name="ring.case" horiz-adv-x="325" 
d="M165 838q46 0 76.5 -32t30.5 -77t-30.5 -77t-76.5 -32q-47 0 -79 32t-32 77t32 77t79 32zM111 729q0 -21 15 -36t37 -15t37 15t15 36t-15 36t-37 15t-37 -15t-15 -36z" />
    <glyph glyph-name="macron.case" horiz-adv-x="325" 
d="M24 829h276v-67h-276v67z" />
    <glyph glyph-name="breve.case" horiz-adv-x="325" 
d="M310 861q-11 -51 -52 -85.5t-95 -34.5q-55 0 -95.5 34.5t-51.5 85.5h69q9 -23 30 -38t48 -15q26 0 47 15t31 38h69z" />
    <glyph glyph-name="dotaccent.case" horiz-adv-x="325" 
d="M109 816q0 23 15.5 38.5t38.5 15.5t38.5 -15.5t15.5 -38.5t-15.5 -38.5t-38.5 -15.5t-38.5 15.5t-15.5 38.5z" />
    <glyph glyph-name="tilde.case" horiz-adv-x="325" 
d="M-2 749q9 54 37.5 79t68.5 25q21 0 37 -6.5t30 -15t27.5 -15t29.5 -6.5q15 0 23.5 6t15.5 17q11 19 29 19q12 0 21.5 -9t9.5 -22q0 -8 -6.5 -20.5t-18.5 -24.5t-30 -20.5t-42 -8.5q-21 0 -37.5 6.5t-31 15t-28 15t-28.5 6.5q-37 0 -42 -41h-65z" />
    <glyph glyph-name="hungarumlaut.case" horiz-adv-x="325" 
d="M9 744l16 22l80 101q10 13 28 13q16 0 27 -11t11 -27q0 -7 -2 -14t-9 -13l-81 -71h-70zM155 744l16 22l80 101q10 13 28 13q15 0 26.5 -11.5t11.5 -26.5q0 -7 -2 -14t-9 -13l-81 -71h-70z" />
    <glyph glyph-name="ogonek.case" horiz-adv-x="263" 
d="M110 0h100q-42 -15 -64.5 -31.5t-22.5 -42.5q0 -21 14 -31t35 -10t38 8v-54q-34 -12 -63 -12q-45 0 -69.5 25t-24.5 57q0 36 18.5 58t38.5 33z" />
    <glyph glyph-name="caron.salt" horiz-adv-x="206" 
d="M53 495q1 5 4 26t7 46.5t8 49t7 32.5q2 8 10.5 18.5t25.5 10.5q18 0 30 -13.5t7 -35.5l-50 -134h-49z" />
    </font>
</defs>
</svg>
