<?xml version="1.0" standalone="no"?>
<!DOCTYPE svg PUBLIC "-//W3C//DTD SVG 1.1//EN" "http://www.w3.org/Graphics/SVG/1.1/DTD/svg11.dtd" >
<svg xmlns="http://www.w3.org/2000/svg" xmlns:xlink="http://www.w3.org/1999/xlink" version="1.1">
<metadata>
(c) 2020 Braille Institute of America, Inc., a 501(c)(3) Charitable Organization. BrailleInstitute.org.
Designed by Elliott Scott, Megan Eiswerth, Linus Boman and Theodore Petrosky at Applied Design Works.
</metadata>
<defs>
<font id="AtkinsonHyperlegible-Bold" horiz-adv-x="573" >
  <font-face 
    font-family="Atkinson Hyperlegible"
    font-weight="700"
    font-stretch="normal"
    units-per-em="1000"
    panose-1="0 0 0 0 0 0 0 0 0 0"
    ascent="800"
    descent="-200"
    x-height="496"
    cap-height="668"
    bbox="-70 -252 1399 911"
    underline-thickness="57"
    underline-position="-162"
    unicode-range="U+000D-2215"
  />
<missing-glyph horiz-adv-x="527" 
d="M50 700h427v-700h-427v700zM449 21l-185 308l-185 -308h370zM251 350l-180 300v-601zM457 652l-181 -302l181 -303v605zM449 680h-371l185 -309z" />
    <glyph glyph-name=".notdef" horiz-adv-x="527" 
d="M50 700h427v-700h-427v700zM449 21l-185 308l-185 -308h370zM251 350l-180 300v-601zM457 652l-181 -302l181 -303v605zM449 680h-371l185 -309z" />
    <glyph glyph-name=".null" horiz-adv-x="0" 
 />
    <glyph glyph-name="uni000D" unicode="&#xd;" horiz-adv-x="0" 
 />
    <glyph glyph-name="space" unicode=" " horiz-adv-x="320" 
 />
    <glyph glyph-name="exclam" unicode="!" horiz-adv-x="283" 
d="M44 668h194v-173l-42 -252h-111l-41 252v173zM142 183q40 0 68.5 -28t28.5 -69t-28.5 -69.5t-68.5 -28.5q-41 0 -69.5 28.5t-28.5 69.5t28.5 69t69.5 28z" />
    <glyph glyph-name="quotedbl" unicode="&#x22;" horiz-adv-x="410" 
d="M182 668l-14 -234h-114l-14 234h142zM370 668l-14 -234h-113l-15 234h142z" />
    <glyph glyph-name="numbersign" unicode="#" horiz-adv-x="783" 
d="M24 127l20 139h128l20 135h-128l20 140h128l19 127h140l-19 -127h137l19 127h141l-19 -127h129l-21 -139h-128l-19 -135h128l-20 -140h-129l-18 -127h-141l18 127h-136l-18 -127h-141l18 127h-128zM450 267l19 134h-137l-19 -134h137z" />
    <glyph glyph-name="dollar" unicode="$" horiz-adv-x="619" 
d="M25 157l144 52q21 -73 103 -89v157l-41 9q-40 9 -77 23.5t-65 36.5t-44.5 53.5t-16.5 74.5q0 48 21 84.5t55.5 61.5t78.5 39.5t89 18.5v69h73v-69q73 -6 133.5 -40t88.5 -103l-143 -52q-19 49 -79 65v-143l11 -2q41 -7 83.5 -19t77 -33.5t57 -55.5t22.5 -86
q0 -49 -21 -88t-56.5 -66.5t-80.5 -44.5t-93 -21v-76h-73v77q-94 8 -156.5 51.5t-90.5 115.5zM434 189q0 27 -24 44t-65 28v-144q34 4 61.5 20.5t27.5 51.5zM266 421l6 -1v132q-36 -5 -59 -21t-23 -42t20.5 -44t55.5 -24z" />
    <glyph glyph-name="percent" unicode="%" horiz-adv-x="977" 
d="M559 186q0 41 15.5 76.5t42 62t62.5 42t77 15.5t77 -15.5t62.5 -42t42 -62t15.5 -76.5t-15.5 -77t-42 -63t-62.5 -42.5t-77 -15.5t-77 15.5t-62.5 42.5t-42 63t-15.5 77zM221 680q41 0 76.5 -15.5t62.5 -42.5t42.5 -63t15.5 -77t-15.5 -76.5t-42.5 -62t-62.5 -42
t-76.5 -15.5t-77 15.5t-62.5 42t-42 62t-15.5 76.5t15.5 77t42 63t62.5 42.5t77 15.5zM659 668h127l-468 -668h-126zM677 186q0 -33 23.5 -56t55.5 -23t55.5 23t23.5 56q0 32 -23.5 55t-55.5 23t-55.5 -23t-23.5 -55zM143 482q0 -32 23 -55t55 -23q33 0 56 23t23 55
q0 33 -23 56t-56 23q-32 0 -55 -23t-23 -56z" />
    <glyph glyph-name="ampersand" unicode="&#x26;" horiz-adv-x="702" 
d="M182 385q-32 41 -46.5 79t-14.5 72q0 38 16 69t44 53.5t66 35t82 12.5q36 0 70.5 -14t61.5 -37.5t43.5 -55.5t16.5 -68q0 -44 -28.5 -90.5t-97.5 -88.5l94 -108q19 30 33.5 66t23.5 79h127q-12 -75 -40 -138.5t-60 -105.5l125 -145h-176l-46 53q-57 -35 -109.5 -50.5
t-100.5 -15.5q-54 0 -98.5 17t-76.5 45.5t-49.5 65.5t-17.5 76q0 54 37 106.5t121 87.5zM286 112q23 0 50.5 8.5t55.5 25.5l-126 144q-45 -17 -64 -42t-19 -51q0 -34 29 -59.5t74 -25.5zM322 437q38 20 55 44.5t17 46.5q0 27 -20 45.5t-51 18.5q-26 0 -44.5 -14.5
t-18.5 -40.5q0 -20 14 -45.5t48 -54.5z" />
    <glyph glyph-name="quotesingle" unicode="'" horiz-adv-x="222" 
d="M182 668l-14 -234h-114l-14 234h142z" />
    <glyph glyph-name="parenleft" unicode="(" horiz-adv-x="366" 
d="M145 668h144q-59 -89 -86 -186t-27 -206q0 -62 12 -121t33 -114t49 -106t61 -96h-151q-66 93 -105.5 204t-39.5 237q0 105 28.5 203t81.5 185z" />
    <glyph glyph-name="parenright" unicode=")" horiz-adv-x="366" 
d="M35 -161q66 91 110.5 201.5t44.5 235.5q0 109 -27 206t-86 186h144q53 -87 81.5 -185t28.5 -203q0 -126 -39 -237t-105 -204h-152z" />
    <glyph glyph-name="asterisk" unicode="*" horiz-adv-x="434" 
d="M288 484l59 -82l-71 -51l-59 81l-59 -81l-71 51l59 82l-96 31l27 83l96 -31v101h88v-101l94 31l28 -83z" />
    <glyph glyph-name="plus" unicode="+" horiz-adv-x="618" 
d="M53 312h192v184h128v-184h192v-128h-192v-184h-128v184h-192v128z" />
    <glyph glyph-name="comma" unicode="," horiz-adv-x="277" 
d="M139 183q40 0 68.5 -28t28.5 -70q0 -18 -6 -35l-77 -196h-90l53 137q-32 8 -53.5 34t-21.5 61q0 41 28.5 69t69.5 28z" />
    <glyph glyph-name="hyphen" unicode="-" horiz-adv-x="408" 
d="M41 184v129h326v-129h-326z" />
    <glyph glyph-name="period" unicode="." horiz-adv-x="277" 
d="M41 86q0 41 28.5 69t69.5 28q40 0 68.5 -28t28.5 -69t-28.5 -69.5t-68.5 -28.5q-41 0 -69.5 28.5t-28.5 69.5z" />
    <glyph glyph-name="slash" unicode="/" horiz-adv-x="442" 
d="M276 668h151l-259 -668h-153z" />
    <glyph glyph-name="zero" unicode="0" horiz-adv-x="652" 
d="M45 335q0 161 72.5 253t213.5 92q142 0 214.5 -92t72.5 -253q0 -80 -18.5 -144t-54.5 -109t-89.5 -69.5t-124.5 -24.5q-70 0 -123.5 24.5t-89.5 69.5t-54.5 109t-18.5 144zM331 101q50 0 81 38l-203 292q-4 -21 -6 -44.5t-2 -51.5q0 -121 36 -177.5t94 -56.5zM455 246
q6 39 6 88q0 122 -35.5 177.5t-94.5 55.5q-45 0 -77 -33z" />
    <glyph glyph-name="one" unicode="1" horiz-adv-x="448" 
d="M47 448v123q39 0 68.5 2.5t51.5 12.5t38.5 29t29.5 53h115v-668h-151v448h-152z" />
    <glyph glyph-name="two" unicode="2" horiz-adv-x="586" 
d="M34 0v125l43 31q42 30 96.5 70t102.5 84t81.5 90t33.5 88q0 39 -27.5 59t-64.5 20q-32 0 -61.5 -17.5t-40.5 -64.5l-138 50q27 70 92.5 107.5t154.5 37.5q51 0 94.5 -13t75.5 -37.5t50 -61t18 -83.5q0 -51 -22 -97.5t-62.5 -90.5t-99 -86.5t-132.5 -85.5h319v-125h-513z
" />
    <glyph glyph-name="three" unicode="3" horiz-adv-x="605" 
d="M171 190q13 -49 47.5 -69t76.5 -20q48 0 75.5 22.5t27.5 64.5q0 31 -15 51t-41 31.5t-59.5 16t-71.5 4.5v106q87 0 133 23.5t46 68.5q0 39 -31 58.5t-73 19.5q-37 0 -68 -18t-41 -64l-137 50q15 38 41 65.5t60 45t73.5 26t80.5 8.5q46 0 90.5 -10t79.5 -31.5t56.5 -54
t21.5 -77.5q0 -54 -29 -94.5t-64 -60.5q50 -19 77 -65t27 -92q0 -52 -22 -91t-58.5 -64.5t-84 -38.5t-98.5 -13q-85 0 -156 36.5t-102 115.5z" />
    <glyph glyph-name="four" unicode="4" horiz-adv-x="626" 
d="M23 252l325 416h152v-393h92v-134h-92v-141h-152v141h-325v111zM188 275h160v194z" />
    <glyph glyph-name="five" unicode="5" horiz-adv-x="612" 
d="M41 139l132 48q14 -49 45.5 -67.5t68.5 -18.5q53 0 87 30.5t34 89.5q0 31 -9.5 53.5t-26 37.5t-38 22t-44.5 7q-74 0 -110 -65l-135 50l42 342h447v-124h-321l-15 -125q23 17 60.5 26t72.5 9q45 0 87 -14.5t74.5 -44t52.5 -73t20 -101.5q0 -57 -22 -101t-59 -73t-86 -44
t-103 -15q-88 0 -155 38t-99 113z" />
    <glyph glyph-name="six" unicode="6" horiz-adv-x="632" 
d="M51 322q0 72 16 137t51 114t89.5 78t132.5 29q76 0 127 -26.5t77 -70.5l-136 -49q-10 17 -31 26.5t-47 9.5q-54 0 -87 -40.5t-33 -126.5q25 23 59 36t84 13q45 0 86.5 -17.5t73 -48.5t50 -74t18.5 -95t-19.5 -94.5t-54 -72.5t-82 -46t-104.5 -16q-72 0 -123 25.5
t-83.5 70.5t-48 106t-15.5 132zM320 101q49 0 77 32t28 86q0 53 -28 86t-78 33q-48 0 -77.5 -32t-29.5 -86t29 -86.5t79 -32.5z" />
    <glyph glyph-name="seven" unicode="7" horiz-adv-x="543" 
d="M83 0l271 543h-339v125h500v-125l-257 -543h-175z" />
    <glyph glyph-name="eight" unicode="8" horiz-adv-x="625" 
d="M152 377q-15 24 -23.5 51.5t-8.5 58.5q0 40 14 75t39.5 61.5t61 41.5t78.5 15t78 -15t60.5 -41.5t39.5 -61.5t14 -75q0 -60 -33 -109q57 -32 86 -71t29 -101q0 -53 -21 -93.5t-57.5 -68.5t-86.5 -42t-109 -14t-109.5 14.5t-87 42t-57.5 68.5t-21 94q0 61 28.5 100
t85.5 70zM195 206q0 -42 32.5 -67t85.5 -25q51 0 84 25.5t33 66.5q0 42 -33 65t-84 23q-53 0 -85.5 -23t-32.5 -65zM313 417q28 0 47.5 20t19.5 49t-19 49t-48 20t-49 -20t-20 -49t20 -49t49 -20z" />
    <glyph glyph-name="nine" unicode="9" horiz-adv-x="561" 
d="M38 441q0 49 18.5 92.5t51 75.5t75.5 51t92 19q50 0 93.5 -19t76.5 -51.5t52 -76t19 -93.5q0 -53 -24 -104l-162 -335h-160l108 202q-49 0 -93 18.5t-76.5 51t-51.5 76t-19 93.5zM278 335q43 0 73.5 30.5t30.5 73.5q0 4 -1 6v5q-5 41 -34.5 67.5t-69.5 26.5h-9
q-42 -4 -68.5 -34t-26.5 -70v-9q4 -42 34.5 -69t70.5 -27z" />
    <glyph glyph-name="colon" unicode=":" horiz-adv-x="277" 
d="M41 86q0 41 28.5 69t69.5 28q40 0 68.5 -28t28.5 -69t-28.5 -69.5t-68.5 -28.5q-41 0 -69.5 28.5t-28.5 69.5zM139 510q40 0 68.5 -28.5t28.5 -69.5q0 -40 -28.5 -68t-68.5 -28q-41 0 -69.5 28t-28.5 68q0 41 28.5 69.5t69.5 28.5z" />
    <glyph glyph-name="semicolon" unicode=";" horiz-adv-x="277" 
d="M139 183q40 0 68.5 -28t28.5 -69q0 -19 -6 -36l-77 -196h-90l53 137q-32 8 -53.5 34t-21.5 61q0 41 28.5 69t69.5 28zM139 510q40 0 68.5 -28.5t28.5 -69.5q0 -40 -28.5 -68t-68.5 -28q-41 0 -69.5 28t-28.5 68q0 41 28.5 69.5t69.5 28.5z" />
    <glyph glyph-name="less" unicode="&#x3c;" 
d="M533 510v-142l-324 -118l324 -120v-142l-493 212v99z" />
    <glyph glyph-name="equal" unicode="=" horiz-adv-x="618" 
d="M565 225v-129h-512v129h512zM53 283v127h512v-127h-512z" />
    <glyph glyph-name="greater" unicode="&#x3e;" 
d="M40 368v142l493 -211v-99l-493 -212v142l325 120z" />
    <glyph glyph-name="question" unicode="?" horiz-adv-x="614" 
d="M40 536q28 70 98.5 107t170.5 37q49 0 95 -10.5t81.5 -31.5t57 -53t21.5 -76q0 -33 -9.5 -58t-26.5 -44.5t-40 -34.5t-50 -27q-24 -11 -42 -21t-30 -21t-18.5 -25.5t-7.5 -34.5h-154q0 35 5.5 61t18.5 45.5t33 35t48 30.5l38 18q29 14 54 28.5t25 39.5t-28.5 41t-76.5 16
q-45 0 -79 -17t-47 -55zM264 183q41 0 69 -28t28 -69t-28 -69.5t-69 -28.5t-69 28.5t-28 69.5t28 69t69 28z" />
    <glyph glyph-name="at" unicode="@" horiz-adv-x="754" 
d="M35 334q0 71 27 134t74.5 110t110.5 74.5t135 27.5q69 0 130.5 -25.5t107 -69.5t72.5 -104.5t27 -130.5v-12q-2 -48 -17.5 -83t-38 -57.5t-50 -33.5t-54.5 -11q-35 0 -63.5 17t-41.5 49q-23 -32 -54 -48t-63 -16q-26 0 -51 10.5t-44 31t-30.5 50.5t-11.5 70q0 57 16 95.5
t43 62t62 33.5t73 10q30 0 60.5 -5.5t58.5 -14.5v-189q0 -35 16.5 -52t37.5 -17q25 0 48 24.5t27 78.5v13q0 55 -21 101.5t-56.5 80.5t-83 53t-101.5 19q-58 0 -108 -22t-87.5 -60t-59 -88t-21.5 -107t22 -107.5t60 -87.5t88.5 -58.5t108.5 -21.5q70 0 133 36v-78
q-64 -28 -136 -28q-71 0 -134 27t-110 74t-74 110t-27 135zM297 319q0 -35 16.5 -52t38.5 -17q24 0 45.5 22t21.5 67v84q-8 2 -17.5 3t-19.5 1q-16 0 -31 -4.5t-27 -16.5t-19.5 -33t-7.5 -54z" />
    <glyph glyph-name="A" unicode="A" horiz-adv-x="690" 
d="M258 668h174l253 -668h-172l-40 119h-256l-40 -119h-172zM260 247h170l-86 254z" />
    <glyph glyph-name="B" unicode="B" horiz-adv-x="647" 
d="M336 668q54 0 100.5 -7.5t80.5 -27t53.5 -53t19.5 -86.5q0 -46 -20.5 -81t-58.5 -58q47 -16 76.5 -52t29.5 -97q0 -56 -19.5 -95.5t-55 -64t-85 -35.5t-110.5 -11h-303v668h292zM202 282v-151h146q51 0 76.5 20.5t25.5 55.5t-25.5 55t-76.5 20h-146zM202 539v-135h139
q40 0 62.5 18.5t22.5 49.5q0 32 -22.5 49.5t-62.5 17.5h-139z" />
    <glyph glyph-name="C" unicode="C" horiz-adv-x="681" 
d="M373 680q95 0 165.5 -42t108.5 -113l-140 -51q-23 41 -60.5 58.5t-78.5 17.5q-35 0 -65 -14.5t-52.5 -42.5t-35.5 -68t-13 -91q0 -52 13 -92.5t35.5 -68t53 -41.5t66.5 -14q38 0 78.5 16t63.5 59l139 -51q-41 -72 -114 -113t-168 -41q-78 0 -140 24t-105 69t-66 109
t-23 144q0 79 23.5 143t67.5 109t106.5 69.5t140.5 24.5z" />
    <glyph glyph-name="D" unicode="D" horiz-adv-x="682" 
d="M264 668q82 0 152.5 -16.5t122.5 -55.5t82 -103t30 -159q0 -96 -30 -160t-82 -102.5t-122.5 -55t-152.5 -16.5h-220v668h220zM202 133h65q43 0 83 6.5t70.5 28t49 61t18.5 105.5t-18.5 106t-49 61.5t-70.5 28.5t-83 7h-65v-404z" />
    <glyph glyph-name="E" unicode="E" horiz-adv-x="580" 
d="M44 668h514v-139h-356v-116h217v-139h-217v-135h356v-139h-514v668z" />
    <glyph glyph-name="F" unicode="F" horiz-adv-x="544" 
d="M44 668h478v-139h-320v-116h320v-139h-320v-274h-158v668z" />
    <glyph glyph-name="G" unicode="G" horiz-adv-x="719" 
d="M375 680q88 0 158.5 -34.5t110.5 -103.5l-136 -56q-17 26 -50 45t-85 19q-36 0 -67 -13.5t-54 -40.5t-36.5 -67t-13.5 -93q0 -106 48 -162t126 -56q27 0 54 5.5t48 19t34 35t13 53.5v19h-150v128h308v-378h-104l-22 74q-64 -86 -205 -86q-73 0 -132 24.5t-100 69.5
t-63 109.5t-22 144.5q0 79 24.5 142.5t69.5 108.5t107.5 69t138.5 24z" />
    <glyph glyph-name="H" unicode="H" horiz-adv-x="679" 
d="M44 668h158v-255h275v255h158v-668h-158v274h-275v-274h-158v668z" />
    <glyph glyph-name="I" unicode="I" horiz-adv-x="458" 
d="M151 124v420h-94v124h344v-124h-92v-420h92v-124h-344v124h94z" />
    <glyph glyph-name="J" unicode="J" horiz-adv-x="560" 
d="M150 228q4 -21 12 -42t21 -37t30.5 -26t41.5 -10q50 0 76.5 31t26.5 112v412h158v-412q0 -126 -66 -197t-195 -71q-106 0 -167.5 51t-82.5 136z" />
    <glyph glyph-name="K" unicode="K" horiz-adv-x="659" 
d="M44 0v668h158v-265l241 265h193l-264 -286l277 -382h-183l-196 272l-68 -75v-197h-158z" />
    <glyph glyph-name="L" unicode="L" horiz-adv-x="537" 
d="M522 139v-139h-478v668h158v-529h320z" />
    <glyph glyph-name="M" unicode="M" horiz-adv-x="842" 
d="M44 0v668h237l139 -479l141 479h237v-668h-154v525l-159 -525h-130l-158 525v-525h-153z" />
    <glyph glyph-name="N" unicode="N" horiz-adv-x="700" 
d="M196 476v-476h-152v668h201l258 -476v476h153v-668h-202z" />
    <glyph glyph-name="O" unicode="O" horiz-adv-x="764" 
d="M35 334q0 78 25 142t71 109t109.5 70t140.5 25t141 -25t110 -70t71.5 -109t25.5 -142t-25.5 -142t-71.5 -109t-110 -70t-141 -25t-140.5 25t-109.5 70t-71 109t-25 142zM202 334q0 -53 14.5 -93.5t39 -67.5t57 -41t68.5 -14q37 0 69.5 14t57 41t39 67.5t14.5 93.5
t-14.5 93.5t-39 67.5t-57 41t-69.5 14q-36 0 -68.5 -14t-57 -41t-39 -67.5t-14.5 -93.5z" />
    <glyph glyph-name="P" unicode="P" horiz-adv-x="634" 
d="M44 668h257q65 0 120.5 -9.5t96 -34t63.5 -66.5t23 -108t-23 -108t-63.5 -66.5t-96 -34t-120.5 -9.5h-99v-232h-158v668zM306 363q27 0 51 3.5t42 13.5t28 26.5t10 43.5q0 26 -10 42.5t-28 26t-42 13t-51 3.5h-104v-172h104z" />
    <glyph glyph-name="Q" unicode="Q" horiz-adv-x="781" 
d="M381 680q77 0 141 -25t110 -70t71.5 -109t25.5 -142q0 -58 -14.5 -108t-40.5 -91l107 -101l-83 -89l-109 103q-86 -60 -208 -60q-77 0 -140.5 25t-109.5 70t-71 109t-25 142t25 142t71 109t109.5 70t140.5 25zM202 334q0 -53 14.5 -93.5t39 -67.5t57 -41t68.5 -14
q57 0 100 31l-143 136l83 87l129 -121q6 19 8.5 39.5t2.5 43.5q0 53 -14.5 93.5t-39 67.5t-57 41t-69.5 14q-36 0 -68.5 -14t-57 -41t-39 -67.5t-14.5 -93.5z" />
    <glyph glyph-name="R" unicode="R" horiz-adv-x="654" 
d="M301 668q65 0 120.5 -9t96 -32t63.5 -63.5t23 -102.5q0 -28 -7.5 -57t-25.5 -54.5t-49 -46.5t-79 -34l194 -269h-183l-181 252h-71v-252h-158v668h257zM202 384h104q56 0 93.5 14.5t37.5 60.5q0 23 -10 38t-27.5 23.5t-41.5 11.5t-52 3h-104v-151z" />
    <glyph glyph-name="S" unicode="S" horiz-adv-x="619" 
d="M169 209q14 -48 52 -71t94 -23q21 0 42.5 3.5t38.5 12t27.5 22t10.5 32.5q0 35 -34 54t-88 30l-81 16q-41 8 -78 22.5t-64.5 37t-44 54t-16.5 74.5q0 54 25.5 93t66 64.5t91 37.5t100.5 12q41 0 80 -8t73 -25.5t60.5 -45t42.5 -66.5l-143 -52q-14 34 -46.5 52t-80.5 18
q-46 0 -76.5 -16.5t-30.5 -47.5q0 -26 20.5 -43.5t55.5 -24.5l90 -18q41 -8 83.5 -20t77 -33.5t57 -55t22.5 -85.5q0 -53 -24.5 -94.5t-64.5 -69.5t-90.5 -42.5t-102.5 -14.5q-110 0 -184 44t-105 125z" />
    <glyph glyph-name="T" unicode="T" horiz-adv-x="617" 
d="M15 668h587v-139h-215v-529h-157v529h-215v139z" />
    <glyph glyph-name="U" unicode="U" horiz-adv-x="657" 
d="M41 292v376h158v-389q0 -37 4.5 -67t18.5 -51t39.5 -32.5t67.5 -11.5q41 0 66.5 11.5t39.5 32.5t18.5 51t4.5 67v389h158v-376q0 -154 -66 -229t-221 -75q-78 0 -133 18.5t-89.5 56t-50 95t-15.5 134.5z" />
    <glyph glyph-name="V" unicode="V" horiz-adv-x="656" 
d="M10 668h164l153 -491l154 491h165l-227 -668h-183z" />
    <glyph glyph-name="W" unicode="W" horiz-adv-x="883" 
d="M10 668h158l93 -463l98 463h164l99 -463l93 463h158l-161 -668h-169l-102 470l-101 -470h-169z" />
    <glyph glyph-name="X" unicode="X" horiz-adv-x="699" 
d="M255 343l-231 325h189l136 -192l137 192h189l-231 -325l245 -343h-190l-150 211l-149 -211h-190z" />
    <glyph glyph-name="Y" unicode="Y" horiz-adv-x="687" 
d="M10 668h184l149 -257l149 257h185l-255 -408v-260h-157v260z" />
    <glyph glyph-name="Z" unicode="Z" horiz-adv-x="621" 
d="M240 139h349v-139h-557v121l337 408h-322v139h527v-121z" />
    <glyph glyph-name="bracketleft" unicode="[" horiz-adv-x="333" 
d="M300 668v-116h-128v-598h128v-115h-256v829h256z" />
    <glyph glyph-name="backslash" unicode="\" horiz-adv-x="442" 
d="M427 0h-151l-261 668h153z" />
    <glyph glyph-name="bracketright" unicode="]" horiz-adv-x="333" 
d="M33 552v116h256v-829h-256v115h128v598h-128z" />
    <glyph glyph-name="asciicircum" unicode="^" horiz-adv-x="589" 
d="M238 668h113l185 -356h-143l-98 194l-99 -194h-143z" />
    <glyph glyph-name="underscore" unicode="_" horiz-adv-x="430" 
d="M10 -128v128h410v-128h-410z" />
    <glyph glyph-name="grave" unicode="`" horiz-adv-x="314" 
d="M53 671q0 23 16.5 40t39.5 17q21 0 38 -15l114 -139h-114l-75 55q-19 19 -19 42z" />
    <glyph glyph-name="a" unicode="a" horiz-adv-x="548" 
d="M19 134q0 45 24.5 76.5t68 51.5t104 31.5t132.5 16.5v19q0 43 -21.5 60.5t-61.5 17.5q-32 0 -55 -14.5t-31 -44.5l-128 46q25 50 83 83t144 33q106 0 163 -47t57 -160v-109q0 -24 1.5 -51.5t3.5 -53.5t5 -49.5t7 -39.5h-141l-18 60q-28 -39 -70 -55.5t-96 -16.5
q-35 0 -66 10t-54.5 29t-37 46t-13.5 61zM246 92q45 0 75 24t30 92v12q-79 -7 -127 -21.5t-48 -53.5q0 -24 20 -38.5t50 -14.5z" />
    <glyph glyph-name="b" unicode="b" horiz-adv-x="596" 
d="M202 668v-240q24 42 67.5 62t83.5 20q48 0 88 -17.5t69.5 -50.5t45.5 -81t16 -109t-16 -109.5t-45.5 -83t-69.5 -53t-88 -18.5q-40 0 -83.5 18.5t-67.5 60.5l-19 -67h-133v668h152zM195 249q0 -77 32.5 -110t77.5 -33t77 38.5t32 107.5t-32 104.5t-77 35.5t-77.5 -33.5
t-32.5 -109.5z" />
    <glyph glyph-name="c" unicode="c" horiz-adv-x="520" 
d="M278 510q32 0 64.5 -6.5t62 -21.5t55 -40t42.5 -62l-127 -46q-12 32 -35.5 45t-52.5 13q-21 0 -40.5 -7.5t-34.5 -24t-24 -44t-9 -66.5q0 -40 9.5 -68t24.5 -44.5t34.5 -24t39.5 -7.5q32 0 54 12.5t35 34.5l124 -45q-19 -34 -45 -57t-55.5 -37t-60.5 -20t-61 -6
q-61 0 -108.5 19t-80 53.5t-49 83t-16.5 107.5t18.5 106.5t52 81.5t80 52.5t103.5 18.5z" />
    <glyph glyph-name="d" unicode="d" horiz-adv-x="596" 
d="M243 510q41 0 84 -20t67 -62v240h152v-474q0 -38 3 -88.5t14 -105.5h-145l-20 67q-32 -43 -73 -61t-82 -18q-48 0 -88 18.5t-69.5 53t-45.5 83t-16 109.5t16 109t45.5 81t69.5 50.5t88 17.5zM292 106q44 0 76.5 33t32.5 110q0 76 -32 109.5t-77 33.5t-77.5 -35.5
t-32.5 -104.5t32.5 -107.5t77.5 -38.5z" />
    <glyph glyph-name="e" unicode="e" horiz-adv-x="566" 
d="M24 251q0 59 21 107t57.5 82t85 52t102.5 18q61 0 110 -22.5t82 -62t49.5 -94.5t12.5 -121h-367q4 -53 38.5 -78.5t76.5 -25.5q35 0 60.5 10t39.5 27l121 -44q-39 -57 -97.5 -84t-119.5 -27q-60 0 -110 18t-86 52t-56 83t-20 110zM177 300h226q-2 48 -33 72.5t-76 24.5
q-43 0 -76.5 -23t-40.5 -74z" />
    <glyph glyph-name="f" unicode="f" horiz-adv-x="367" 
d="M5 380v116h82v81q0 44 11 73.5t34.5 46.5t59.5 24t86 7h69v-120h-42q-41 0 -53.5 -8t-12.5 -37v-67h108v-116h-108v-380h-152v380h-82z" />
    <glyph glyph-name="g" unicode="g" horiz-adv-x="597" 
d="M395 428l20 68h131v-459q0 -125 -68.5 -182.5t-184.5 -57.5q-31 0 -62.5 5.5t-61 19t-54.5 36.5t-42 57l124 45q14 -27 40 -37t52 -10q46 0 76 21.5t30 72.5v89q-32 -40 -73.5 -59t-83.5 -19q-40 0 -78.5 16.5t-68.5 47.5t-48.5 75.5t-18.5 101.5q0 65 18 112.5
t47.5 78.5t67 46t76.5 15q48 0 90.5 -21t71.5 -62zM292 136q22 0 42 6t35 21t23.5 39.5t8.5 60.5t-8.5 61t-23.5 40t-35 21.5t-42 6.5q-45 0 -77.5 -29.5t-32.5 -95.5t32.5 -98.5t77.5 -32.5z" />
    <glyph glyph-name="h" unicode="h" horiz-adv-x="572" 
d="M50 668h152v-238q17 28 56.5 54t96.5 26q96 0 131.5 -53.5t35.5 -154.5v-302h-152v264q0 26 -1.5 49.5t-9 41t-23 27.5t-42.5 10q-48 0 -70 -34.5t-22 -102.5v-255h-152v668z" />
    <glyph glyph-name="i" unicode="i" horiz-adv-x="315" 
d="M24 496h247v-496h-153v380h-94v116zM105 668q0 38 26 64t64 26t64 -26t26 -64q0 -37 -26 -63.5t-64 -26.5t-64 26.5t-26 63.5z" />
    <glyph glyph-name="j" unicode="j" horiz-adv-x="259" 
d="M-11 -41q39 0 52.5 7t13.5 32v498h152v-520q0 -42 -14.5 -69t-40 -42t-60 -20.5t-75.5 -5.5h-87v120h59zM42 668q0 38 26 64t64 26q37 0 63.5 -26t26.5 -64q0 -37 -26.5 -63.5t-63.5 -26.5q-38 0 -64 26.5t-26 63.5z" />
    <glyph glyph-name="k" unicode="k" horiz-adv-x="567" 
d="M50 0v668h152v-360l166 188h180l-194 -207l209 -289h-180l-129 180l-52 -55v-125h-152z" />
    <glyph glyph-name="l" unicode="l" horiz-adv-x="314" 
d="M202 668v-488q0 -35 14 -45.5t52 -10.5h43v-124h-97q-46 0 -77 5.5t-50.5 20.5t-28 42.5t-8.5 71.5v528h152z" />
    <glyph glyph-name="m" unicode="m" horiz-adv-x="886" 
d="M50 0v496h133l19 -66q17 28 55.5 54t94.5 26q60 0 95 -21t52 -62q29 42 73 62.5t97 20.5q95 0 131 -53.5t36 -154.5v-302h-152v264q0 26 -2 49.5t-9.5 41t-23 27.5t-42.5 10q-47 0 -67.5 -32t-20.5 -98v-262h-153v264q0 26 -1.5 49.5t-9 41t-22 27.5t-41.5 10
q-48 0 -69 -34t-21 -99v-259h-152z" />
    <glyph glyph-name="n" unicode="n" horiz-adv-x="572" 
d="M50 0v496h133l19 -66q17 28 56.5 54t96.5 26q96 0 131.5 -53.5t35.5 -154.5v-302h-152v264q0 26 -1.5 49.5t-9 41t-23 27.5t-42.5 10q-48 0 -70 -34.5t-22 -102.5v-255h-152z" />
    <glyph glyph-name="o" unicode="o" 
d="M24 250q0 67 21.5 116t58 81t84 47.5t99.5 15.5q51 0 98.5 -15.5t83.5 -47.5t58 -81t22 -116t-22 -116.5t-58 -81.5t-83.5 -48t-98.5 -16q-52 0 -99.5 16t-84 48t-58 81.5t-21.5 116.5zM287 106q46 0 76.5 33t30.5 111q0 79 -31.5 110.5t-75.5 31.5q-45 0 -76.5 -31.5
t-31.5 -110.5q0 -78 30.5 -111t77.5 -33z" />
    <glyph glyph-name="p" unicode="p" horiz-adv-x="596" 
d="M50 496h132l20 -68q24 42 67.5 62t83.5 20q48 0 88 -18.5t69.5 -52.5t45.5 -82.5t16 -108.5q0 -61 -16 -109.5t-45.5 -82t-69.5 -51t-88 -17.5q-40 0 -83.5 20.5t-67.5 62.5v-232h-152v657zM305 106q45 0 77 36t32 106q0 69 -32 106.5t-77 37.5t-77.5 -32t-32.5 -109
t32.5 -111t77.5 -34z" />
    <glyph glyph-name="q" unicode="q" horiz-adv-x="601" 
d="M24 248q0 60 16 108.5t45.5 82.5t69.5 52.5t88 18.5q41 0 84 -20t67 -62l20 68h132v-458q0 -31 8.5 -51.5t49.5 -20.5q29 0 70 10v-131q-16 -5 -46 -11t-65 -6q-30 0 -60 6.5t-54.5 24.5t-39.5 49.5t-15 81.5v80q-24 -41 -67 -61.5t-84 -20.5q-48 0 -88 17.5t-69.5 51
t-45.5 82t-16 109.5zM292 106q45 0 77 34t32 111t-32.5 109t-76.5 32q-45 0 -77.5 -37.5t-32.5 -106.5q0 -70 32.5 -106t77.5 -36z" />
    <glyph glyph-name="r" unicode="r" horiz-adv-x="372" 
d="M170 496l27 -91q23 60 63 84t97 21v-152q-12 2 -21 2.5t-20 0.5q-56 0 -85 -25.5t-29 -85.5v-250h-152v496h120z" />
    <glyph glyph-name="s" unicode="s" horiz-adv-x="534" 
d="M150 161q11 -32 42.5 -47t74.5 -15q37 0 65.5 11.5t28.5 34.5q0 16 -17 26.5t-60 18.5l-89 15q-72 12 -117 48.5t-45 99.5q0 39 18.5 68.5t49.5 49t72.5 29.5t87.5 10q72 0 132 -25.5t88 -84.5l-128 -47q-8 27 -33.5 36.5t-59.5 9.5q-82 0 -82 -40q0 -15 14 -24.5
t47 -15.5l92 -17q91 -17 133.5 -47t42.5 -93q0 -44 -19.5 -76.5t-52.5 -54.5t-77 -32.5t-94 -10.5q-88 0 -151 31.5t-92 94.5z" />
    <glyph glyph-name="t" unicode="t" horiz-adv-x="379" 
d="M13 496h82v124h152v-124h108v-116h-108v-200q0 -35 13.5 -45.5t50.5 -10.5h44v-124h-96q-46 0 -77 5.5t-50.5 20.5t-28 42.5t-8.5 71.5v240h-82v116z" />
    <glyph glyph-name="u" unicode="u" horiz-adv-x="570" 
d="M50 496h152v-260q0 -27 1.5 -50.5t9 -41t22.5 -28t43 -10.5q48 0 68 30t20 99v261h153v-496h-132l-21 70q-22 -37 -54.5 -59.5t-89.5 -22.5q-49 0 -82.5 14t-53 40.5t-28 65.5t-8.5 90v298z" />
    <glyph glyph-name="v" unicode="v" horiz-adv-x="526" 
d="M0 496h157l106 -338l106 338h157l-178 -496h-171z" />
    <glyph glyph-name="w" unicode="w" horiz-adv-x="723" 
d="M0 496h150l75 -336l64 336h144l64 -336l75 336h151l-124 -496h-166l-72 356l-71 -356h-166z" />
    <glyph glyph-name="x" unicode="x" horiz-adv-x="533" 
d="M184 259l-169 237h166l86 -121l85 121h166l-169 -237l184 -259h-166l-100 143l-101 -143h-166z" />
    <glyph glyph-name="y" unicode="y" horiz-adv-x="518" 
d="M0 496h163l97 -310l95 310h163l-190 -496q-18 -47 -35.5 -78t-41 -49.5t-56.5 -26t-81 -7.5h-49v110h30q24 0 39 1t24.5 5t15 12.5t11.5 22.5l5 13z" />
    <glyph glyph-name="z" unicode="z" horiz-adv-x="516" 
d="M496 121v-121h-466v121l257 254h-243v121h438v-121l-256 -254h270z" />
    <glyph glyph-name="braceleft" unicode="{" horiz-adv-x="370" 
d="M24 193v123q23 0 37 6.5t21.5 19t9.5 30t2 38.5v96q0 48 13 79.5t38 50t60 25.5t80 7h51v-120h-33q-32 0 -48.5 -8t-16.5 -36v-123q0 -31 -8 -53t-21 -36t-30 -22.5t-35 -13.5v-3q18 -5 35 -13t30 -22.5t21 -36t8 -53.5v-125q0 -28 16.5 -36t48.5 -8h33v-120h-51
q-45 0 -80 7t-60 25.5t-38 50t-13 80.5v95q0 22 -2 40t-9.5 30.5t-21.5 19t-37 6.5z" />
    <glyph glyph-name="bar" unicode="|" horiz-adv-x="234" 
d="M44 -161v829h146v-829h-146z" />
    <glyph glyph-name="braceright" unicode="}" horiz-adv-x="370" 
d="M34 668h52q45 0 80 -7t60 -25.5t38 -50t13 -79.5v-96q0 -43 11.5 -68.5t57.5 -25.5v-123q-46 0 -57.5 -25.5t-11.5 -70.5v-95q0 -49 -13 -80.5t-38 -50t-60 -25.5t-80 -7h-52v120h34q32 0 48.5 8t16.5 36v125q0 32 7.5 53.5t20.5 36t30 22.5t35 13v3q-18 5 -35 13.5
t-30 22.5t-20.5 36t-7.5 53v123q0 28 -16.5 36t-48.5 8h-34v120z" />
    <glyph glyph-name="asciitilde" unicode="~" horiz-adv-x="533" 
d="M176 350q28 0 51.5 -9.5t44 -20.5t39 -20.5t36.5 -9.5q17 0 30 15t10 65l106 -37q-5 -77 -34 -121.5t-100 -44.5q-26 0 -48.5 9.5t-43 20.5t-40.5 20.5t-41 9.5q-18 0 -30.5 -15t-10.5 -66l-105 38q5 77 35 121.5t101 44.5z" />
    <glyph glyph-name="uni00A0" unicode="&#xa0;" horiz-adv-x="320" 
 />
    <glyph glyph-name="exclamdown" unicode="&#xa1;" horiz-adv-x="283" 
d="M45 12l41 253h111l41 -253v-173h-193v173zM44 421q0 41 28.5 69.5t69.5 28.5q40 0 68.5 -28.5t28.5 -69.5q0 -40 -28.5 -68t-68.5 -28q-41 0 -69.5 28t-28.5 68z" />
    <glyph glyph-name="cent" unicode="&#xa2;" horiz-adv-x="520" 
d="M244 508v63h73v-64q55 -7 105.5 -36t79.5 -92l-127 -45q-9 23 -24 36t-33 18v-279q39 9 58 43l124 -45q-32 -57 -81.5 -83.5t-101.5 -33.5v-77h-73v76q-107 11 -163.5 81t-56.5 181q0 54 16 98.5t44.5 78t69.5 54t90 26.5zM244 115v268q-28 -13 -46.5 -44.5t-18.5 -88.5
q0 -60 19 -91.5t46 -43.5z" />
    <glyph glyph-name="sterling" unicode="&#xa3;" horiz-adv-x="617" 
d="M50 104q60 29 91.5 61t31.5 86q0 23 -10 44h-113v73h75q-17 31 -30 64.5t-13 70.5q0 47 22 80.5t57.5 54.5t81 31t91.5 10q88 0 155 -37.5t96 -105.5l-136 -50q-11 39 -44 55.5t-69 16.5q-41 0 -67.5 -18t-26.5 -50t15.5 -61.5t32.5 -60.5h160v-73h-126q7 -18 7 -40
q0 -42 -31 -77.5t-74 -62.5q21 12 42 15.5t42 3.5q38 0 74.5 -10.5t68.5 -10.5q27 0 52 8t51 23l44 -121q-35 -17 -73 -26t-87 -9q-27 0 -52 5.5t-50 12.5t-49 12.5t-49 5.5q-22 0 -56.5 -6t-78.5 -30z" />
    <glyph glyph-name="currency" unicode="&#xa4;" horiz-adv-x="596" 
d="M120 194q-20 27 -30.5 59t-10.5 68q0 35 10.5 66.5t30.5 58.5l-67 67l52 52l67 -67q27 20 59 30.5t67 10.5q36 0 67.5 -10.5t58.5 -30.5l67 67l52 -52l-67 -67q40 -55 40 -125q0 -36 -10.5 -68t-29.5 -59l67 -67l-52 -52l-67 67q-55 -40 -126 -40t-126 40l-67 -67l-52 52
zM298 221q41 0 70 29t29 71q0 41 -29 69.5t-70 28.5q-42 0 -70.5 -28.5t-28.5 -69.5q0 -42 28.5 -71t70.5 -29z" />
    <glyph glyph-name="yen" unicode="&#xa5;" horiz-adv-x="687" 
d="M194 667l149 -256l149 256h185l-239 -381h114v-74h-130v-63h130v-74h-130v-75h-157v75h-129v74h129v63h-129v74h113l-239 381h184z" />
    <glyph glyph-name="brokenbar" unicode="&#xa6;" horiz-adv-x="216" 
d="M44 -161v311h128v-311h-128zM172 668v-310h-128v310h128z" />
    <glyph glyph-name="section" unicode="&#xa7;" horiz-adv-x="578" 
d="M107 421q-18 23 -28.5 49.5t-10.5 56.5q0 38 17.5 66.5t46.5 47.5t68 29t82 10q30 0 60 -5.5t58 -18.5t51 -34.5t38 -53.5l-130 -47q-2 5 -6.5 12.5t-13.5 14.5t-23 12t-35 5q-30 0 -47 -9t-17 -25q0 -17 16 -30t45 -27l122 -60q72 -35 111.5 -72t39.5 -94
q0 -42 -24.5 -76t-68.5 -58q21 -23 32.5 -49.5t11.5 -59.5q0 -41 -16.5 -74t-46.5 -56t-71.5 -35.5t-90.5 -12.5q-81 0 -135.5 37t-77.5 101l130 47q18 -68 87 -68q33 0 51.5 13.5t18.5 35.5q0 23 -19 41t-55 35l-115 56q-67 32 -104 72.5t-37 97.5q0 38 24 70.5t62 55.5z
M231 246l125 -62q20 9 31 19.5t11 26.5q0 23 -21.5 37t-55.5 31l-110 54q-41 -20 -41 -45q0 -20 17 -33.5t44 -27.5z" />
    <glyph glyph-name="dieresis" unicode="&#xa8;" horiz-adv-x="452" 
d="M59 648q0 29 21 50t50 21t49.5 -21t20.5 -50t-20.5 -49.5t-49.5 -20.5t-50 20.5t-21 49.5zM253 648q0 29 21 50t50 21t49 -21t20 -50t-20 -49.5t-49 -20.5t-50 20.5t-21 49.5z" />
    <glyph glyph-name="copyright" unicode="&#xa9;" horiz-adv-x="798" 
d="M53 334q0 71 27 134t74 110t110 74t134 27q72 0 135 -27t110.5 -74t74.5 -110t27 -134q0 -72 -27 -135t-74.5 -110t-110.5 -74t-135 -27q-71 0 -134 27t-110 74t-74 110t-27 135zM398 57q57 0 107.5 22t88 59.5t59.5 88t22 107.5t-22 107.5t-59.5 88t-88 59t-107.5 21.5
t-107 -21.5t-87.5 -59t-59 -88t-21.5 -107.5t21.5 -107.5t59 -88t87.5 -59.5t107 -22zM401 522q47 0 92.5 -20.5t70.5 -73.5l-92 -34q-9 23 -26 33t-39 10q-29 0 -53 -23t-24 -80q0 -29 6.5 -49t17.5 -32t25 -17.5t28 -5.5q47 0 66 34l90 -33q-28 -48 -73 -67t-89 -19
q-88 0 -135.5 52t-47.5 137q0 42 13.5 77t37.5 59.5t58 38t74 13.5z" />
    <glyph glyph-name="ordfeminine" unicode="&#xaa;" horiz-adv-x="395" 
d="M79 550q21 17 56.5 23.5t67.5 10.5l35 4v6q0 29 -40 29q-14 0 -25 -5t-14 -19l-87 31q30 61 138 61q64 0 95.5 -26.5t31.5 -86.5v-60q0 -26 0.5 -55t4.5 -60h-84l-9 32q-11 -17 -32 -28.5t-57 -11.5q-52 0 -79.5 29t-27.5 67q0 40 26 59zM157 495q0 -11 8 -19.5t25 -8.5
q21 0 35.5 11t14.5 31v17l-37 -3q-27 -2 -36.5 -9.5t-9.5 -18.5z" />
    <glyph glyph-name="guillemotleft" unicode="&#xab;" horiz-adv-x="669" 
d="M294 251l146 210h175l-149 -210l150 -211h-176zM53 251l148 210h173l-148 -210l149 -211h-174z" />
    <glyph glyph-name="logicalnot" unicode="&#xac;" horiz-adv-x="618" 
d="M565 422v-366h-128v239h-384v127h512z" />
    <glyph glyph-name="registered" unicode="&#xae;" horiz-adv-x="798" 
d="M53 334q0 71 27 134t74 110t110 74t134 27q72 0 135 -27t110.5 -74t74.5 -110t27 -134q0 -72 -27 -135t-74.5 -110t-110.5 -74t-135 -27q-71 0 -134 27t-110 74t-74 110t-27 135zM123 334q0 -57 21.5 -107.5t59 -88t87.5 -59.5t107 -22t107.5 22t88 59.5t59.5 88
t22 107.5t-22 107.5t-59.5 88t-88 59t-107.5 21.5t-107 -21.5t-87.5 -59t-59 -88t-21.5 -107.5zM241 529h151q36 0 66.5 -5t53 -17.5t35 -34.5t12.5 -57q0 -32 -17.5 -61.5t-69.5 -43.5l107 -149h-108l-101 139h-32v-139h-97v368zM390 375q29 0 48.5 7.5t19.5 31.5
t-19.5 31.5t-48.5 7.5h-52v-78h52z" />
    <glyph glyph-name="macron" unicode="&#xaf;" horiz-adv-x="405" 
d="M53 570v98h299v-98h-299z" />
    <glyph glyph-name="degree" unicode="&#xb0;" horiz-adv-x="404" 
d="M40 517q0 33 13 62.5t35 51.5t51.5 35t62.5 13q34 0 63.5 -13t51.5 -35t34.5 -51.5t12.5 -62.5q0 -34 -12.5 -63.5t-34.5 -51.5t-51.5 -35t-63.5 -13q-33 0 -62.5 13t-51.5 35t-35 51.5t-13 63.5zM202 444q31 0 52 21.5t21 51.5t-21 51.5t-52 21.5q-30 0 -51.5 -21.5
t-21.5 -51.5t21.5 -51.5t51.5 -21.5z" />
    <glyph glyph-name="plusminus" unicode="&#xb1;" horiz-adv-x="618" 
d="M53 391h192v104h128v-104h192v-108h-192v-103h-128v103h-192v108zM53 128h512v-128h-512v128z" />
    <glyph glyph-name="twosuperior" unicode="&#xb2;" horiz-adv-x="407" 
d="M53 484l36 25q26 18 54.5 38.5t52.5 41.5t39.5 42.5t15.5 41.5q0 18 -12.5 27t-30.5 9q-22 0 -35.5 -12t-17.5 -31l-91 33q16 42 54 64t95 22q60 0 100.5 -26t40.5 -82q0 -28 -11 -51.5t-32 -45.5t-50.5 -44t-65.5 -46h158v-87h-300v81z" />
    <glyph glyph-name="threesuperior" unicode="&#xb3;" horiz-adv-x="413" 
d="M53 478l91 33q7 -20 23.5 -29.5t37.5 -9.5q26 0 38 11.5t12 28.5q0 22 -18.5 31t-54.5 9h-15v84h15q65 0 65 38q0 19 -14.5 27t-31.5 8q-18 0 -33 -8.5t-21 -25.5l-89 33q17 38 55 57.5t92 19.5q63 0 104 -26.5t41 -75.5q0 -30 -14.5 -51.5t-34.5 -31.5q27 -10 43 -33.5
t16 -56.5q0 -28 -12.5 -49.5t-34.5 -36t-50 -22t-60 -7.5q-55 0 -93.5 21.5t-56.5 61.5z" />
    <glyph glyph-name="acute" unicode="&#xb4;" horiz-adv-x="314" 
d="M164 709q3 4 13 11t28 7q24 0 40 -16t16 -40q0 -26 -19 -42l-75 -55h-114z" />
    <glyph glyph-name="paragraph" unicode="&#xb6;" horiz-adv-x="515" 
d="M24 478q0 39 15 73.5t40.5 60t60 40.5t73.5 15h282v-67h-47v-762h-95v762h-92v-762h-95v457q-61 16 -101.5 66t-40.5 117z" />
    <glyph glyph-name="periodcentered" unicode="&#xb7;" horiz-adv-x="301" 
d="M53 248q0 41 28.5 69t69.5 28q40 0 68.5 -28t28.5 -69t-28.5 -69t-68.5 -28q-41 0 -69.5 28t-28.5 69z" />
    <glyph glyph-name="cedilla" unicode="&#xb8;" horiz-adv-x="321" 
d="M73 -174l16 50q8 -5 25.5 -9t35.5 -4t31 6t13 21q0 12 -10 19t-27 7q-12 0 -27 -5q-9 -3 -17 2t-10.5 12.5t2.5 15.5l52 84l41 -25l-30 -48q14 3 34 3q14 0 29.5 -3t28 -10.5t20.5 -19.5t8 -29q0 -22 -11 -37t-28.5 -24.5t-40.5 -14t-47 -4.5t-46.5 3.5t-41.5 9.5z" />
    <glyph glyph-name="onesuperior" unicode="&#xb9;" horiz-adv-x="291" 
d="M53 647v87q41 0 68.5 6.5t37.5 38.5h79v-376h-101v244h-84z" />
    <glyph glyph-name="ordmasculine" unicode="&#xba;" horiz-adv-x="409" 
d="M57 542q0 38 12 65.5t33 45.5t48.5 27t58.5 9t58.5 -9t48 -27t32.5 -45.5t12 -65.5q0 -37 -12 -65t-32.5 -46t-48 -27t-58.5 -9t-58.5 9t-48.5 27t-33 46t-12 65zM209 472q21 0 35 17.5t14 52.5t-14 52.5t-35 17.5q-20 0 -34.5 -17.5t-14.5 -52.5t14.5 -52.5t34.5 -17.5z
" />
    <glyph glyph-name="guillemotright" unicode="&#xbb;" horiz-adv-x="669" 
d="M442 251l-148 210h174l148 -210l-148 -211h-174zM53 40l150 211l-149 210h174l147 -210l-147 -211h-175z" />
    <glyph glyph-name="onequarter" unicode="&#xbc;" horiz-adv-x="853" 
d="M110 0l468 667h127l-468 -667h-127zM460 152l181 223h101v-214h58v-87h-58v-74h-101v74h-181v78zM53 535v88q41 0 68.5 6t37.5 38h79v-375h-101v243h-84zM641 161v95l-78 -95h78z" />
    <glyph glyph-name="onehalf" unicode="&#xbd;" horiz-adv-x="856" 
d="M578 667h127l-468 -667h-127zM502 81q25 18 59 40.5t65 47.5t52.5 50t21.5 47q0 21 -12.5 30.5t-30.5 9.5q-23 0 -36 -12t-18 -31l-91 33q16 42 54 63.5t95 21.5q60 0 101 -26t41 -81q0 -28 -11.5 -51.5t-32 -45.5t-50 -44t-65.5 -46h158v-87h-300v81zM53 535v88
q41 0 68.5 6t37.5 38h79v-375h-101v243h-84z" />
    <glyph glyph-name="threequarters" unicode="&#xbe;" horiz-adv-x="959" 
d="M668 667h127l-468 -667h-127zM748 375h101v-214h57v-87h-57v-74h-101v74h-181v78zM144 404q7 -19 23.5 -28.5t37.5 -9.5q26 0 38 11t12 27q0 23 -18.5 32.5t-54.5 9.5h-15v84h15q65 0 65 39q0 17 -14.5 25.5t-31.5 8.5q-18 0 -33 -8.5t-21 -25.5l-89 33q17 38 55.5 57.5
t94.5 19.5q61 0 101.5 -26.5t40.5 -75.5q0 -30 -14.5 -51.5t-34.5 -31.5q27 -10 43 -33.5t16 -56.5q0 -27 -12.5 -48.5t-34.5 -36t-50 -22t-60 -7.5q-55 0 -93.5 21.5t-56.5 60.5zM669 161h79v95z" />
    <glyph glyph-name="questiondown" unicode="&#xbf;" horiz-adv-x="614" 
d="M176 162q48 22 72.5 42t25.5 61h154q0 -35 -5.5 -61t-18.5 -46.5t-34 -36.5t-52 -32q-17 -9 -36.5 -17t-36.5 -17t-28 -20t-11 -25q0 -28 27.5 -44.5t74.5 -16.5t81.5 16.5t47.5 54.5l137 -50q-28 -69 -98.5 -106t-169.5 -37q-49 0 -95.5 10.5t-82 31.5t-57 53t-21.5 76
q0 65 36.5 102t89.5 62zM253 421q0 41 28.5 69.5t68.5 28.5q41 0 69 -28.5t28 -69.5t-28 -69t-69 -28q-40 0 -68.5 28t-28.5 69z" />
    <glyph glyph-name="Agrave" unicode="&#xc0;" horiz-adv-x="690" 
d="M258 668h174l253 -668h-172l-40 119h-256l-40 -119h-172zM260 247h170l-86 254zM175 829q0 22 17 39t39 17q21 0 38 -15l5.5 -6t14.5 -16t20 -22.5t23 -25.5q27 -30 62 -69h-125l-74 55q-10 10 -15 19.5t-5 23.5z" />
    <glyph glyph-name="Aacute" unicode="&#xc1;" horiz-adv-x="690" 
d="M258 668h174l253 -668h-172l-40 119h-256l-40 -119h-172zM260 247h170l-86 254zM277 731q33 37 60 67q11 13 21.5 24.5t18.5 21.5q10 11 19 21l5 5q15 15 38 15t39.5 -16.5t16.5 -39.5q0 -24 -19 -43l-74 -55h-125z" />
    <glyph glyph-name="Acircumflex" unicode="&#xc2;" horiz-adv-x="690" 
d="M258 668h174l253 -668h-172l-40 119h-256l-40 -119h-172zM260 247h170l-86 254zM297 864q10 8 22.5 13.5t26.5 5.5q28 0 49 -19l148 -133h-129l-68 61l-67 -61h-129z" />
    <glyph glyph-name="Atilde" unicode="&#xc3;" horiz-adv-x="690" 
d="M258 668h174l253 -668h-172l-40 119h-256l-40 -119h-172zM260 247h170l-86 254zM280 846q24 0 40.5 -6.5t30 -14t26 -14t27.5 -6.5q14 0 23.5 5t19.5 16q18 20 36 20q26 0 37.5 -20t-1.5 -43q-16 -28 -47 -42.5t-62 -14.5q-36 0 -68 16q-18 9 -28.5 15t-23.5 7
q-18 1 -30.5 -7.5t-15.5 -25.5h-89q9 55 40 85t85 30z" />
    <glyph glyph-name="Adieresis" unicode="&#xc4;" horiz-adv-x="690" 
d="M258 668h174l253 -668h-172l-40 119h-256l-40 -119h-172zM260 247h170l-86 254zM178 796q0 29 21 50t50 21t49.5 -21t20.5 -50t-20.5 -49.5t-49.5 -20.5t-50 20.5t-21 49.5zM372 796q0 29 21 50t50 21t49 -21t20 -50t-20 -49.5t-49 -20.5t-50 20.5t-21 49.5z" />
    <glyph glyph-name="Aring" unicode="&#xc5;" horiz-adv-x="690" 
d="M258 668h174l253 -668h-172l-40 119h-256l-40 -119h-172zM260 247h170l-86 254zM345 861q27 0 51.5 -10.5t42.5 -28.5t28.5 -42t10.5 -51t-10.5 -51.5t-28.5 -42.5t-42.5 -28.5t-51.5 -10.5t-51 10.5t-42 28.5t-28.5 42.5t-10.5 51.5t10.5 51t28.5 42t42 28.5t51 10.5z
M298 729q0 -20 13.5 -33.5t33.5 -13.5t33.5 13.5t13.5 33.5t-13.5 33.5t-33.5 13.5t-33.5 -13.5t-13.5 -33.5z" />
    <glyph glyph-name="AE" unicode="&#xc6;" horiz-adv-x="1016" 
d="M5 0l476 667h513v-139h-355v-115h218v-138h-218v-136h355v-139h-513v119h-224l-80 -119h-172zM341 247h140v206z" />
    <glyph glyph-name="Ccedilla" unicode="&#xc7;" horiz-adv-x="681" 
d="M373 680q95 0 165.5 -42t108.5 -113l-140 -51q-23 41 -60.5 58.5t-78.5 17.5q-35 0 -65 -14.5t-52.5 -42.5t-35.5 -68t-13 -91q0 -52 13 -92.5t35.5 -68t53 -41.5t66.5 -14q38 0 78.5 16t63.5 59l139 -51q-41 -72 -114 -113t-168 -41q-78 0 -140 24t-105 69t-66 109
t-23 144q0 79 23.5 143t67.5 109t106.5 69.5t140.5 24.5zM250 -174l16 50q8 -5 25.5 -9t35.5 -4t31 6t13 21q0 12 -10 19t-27 7q-12 0 -27 -5q-9 -3 -17 2t-10.5 12.5t2.5 15.5l52 84l41 -25l-30 -48q14 3 34 3q14 0 29.5 -3t28 -10.5t20.5 -19.5t8 -29q0 -22 -11 -37
t-28.5 -24.5t-40.5 -14t-47 -4.5t-46.5 3.5t-41.5 9.5z" />
    <glyph glyph-name="Egrave" unicode="&#xc8;" horiz-adv-x="580" 
d="M44 668h514v-139h-356v-116h217v-139h-217v-135h356v-139h-514v668zM166 829q0 22 17 39t39 17q21 0 38 -15l5.5 -6t14.5 -16t20 -22.5t23 -25.5q27 -30 62 -69h-125l-74 55q-10 10 -15 19.5t-5 23.5z" />
    <glyph glyph-name="Eacute" unicode="&#xc9;" horiz-adv-x="580" 
d="M44 668h514v-139h-356v-116h217v-139h-217v-135h356v-139h-514v668zM220 731q33 37 60 67q11 13 21.5 24.5t18.5 21.5q10 11 19 21l5 5q15 15 38 15t39.5 -16.5t16.5 -39.5q0 -24 -19 -43l-74 -55h-125z" />
    <glyph glyph-name="Ecircumflex" unicode="&#xca;" horiz-adv-x="580" 
d="M44 668h514v-139h-356v-116h217v-139h-217v-135h356v-139h-514v668zM252 864q10 8 22.5 13.5t26.5 5.5q28 0 49 -19l148 -133h-129l-68 61l-67 -61h-129z" />
    <glyph glyph-name="Edieresis" unicode="&#xcb;" horiz-adv-x="580" 
d="M44 668h514v-139h-356v-116h217v-139h-217v-135h356v-139h-514v668zM134 796q0 29 21 50t50 21t49.5 -21t20.5 -50t-20.5 -49.5t-49.5 -20.5t-50 20.5t-21 49.5zM328 796q0 29 21 50t50 21t49 -21t20 -50t-20 -49.5t-49 -20.5t-50 20.5t-21 49.5z" />
    <glyph glyph-name="Igrave" unicode="&#xcc;" horiz-adv-x="458" 
d="M151 124v420h-94v124h344v-124h-92v-420h92v-124h-344v124h94zM79 829q0 22 17 39t39 17q21 0 38 -15l5.5 -6t14.5 -16t20 -22.5t23 -25.5q27 -30 62 -69h-125l-74 55q-10 10 -15 19.5t-5 23.5z" />
    <glyph glyph-name="Iacute" unicode="&#xcd;" horiz-adv-x="458" 
d="M151 124v420h-94v124h344v-124h-92v-420h92v-124h-344v124h94zM163 731q33 37 60 67q11 13 21.5 24.5t18.5 21.5q10 11 19 21l5 5q15 15 38 15t39.5 -16.5t16.5 -39.5q0 -24 -19 -43l-74 -55h-125z" />
    <glyph glyph-name="Icircumflex" unicode="&#xce;" horiz-adv-x="458" 
d="M151 124v420h-94v124h344v-124h-92v-420h92v-124h-344v124h94zM180 864q10 8 22.5 13.5t26.5 5.5q28 0 49 -19l148 -133h-129l-68 61l-67 -61h-129z" />
    <glyph glyph-name="Idieresis" unicode="&#xcf;" horiz-adv-x="458" 
d="M151 124v420h-94v124h344v-124h-92v-420h92v-124h-344v124h94zM62 796q0 29 21 50t50 21t49.5 -21t20.5 -50t-20.5 -49.5t-49.5 -20.5t-50 20.5t-21 49.5zM256 796q0 29 21 50t50 21t49 -21t20 -50t-20 -49.5t-49 -20.5t-50 20.5t-21 49.5z" />
    <glyph glyph-name="Eth" unicode="&#xd0;" horiz-adv-x="769" 
d="M13 275v137h118v256h220q82 0 152.5 -16.5t122.5 -55.5t82 -103t30 -159q0 -96 -30 -160t-82 -102.5t-122.5 -55t-152.5 -16.5h-220v275h-118zM289 275v-142h65q43 0 83 6.5t70.5 28t49 61t18.5 105.5t-18.5 106t-49 61.5t-70.5 28.5t-83 7h-65v-125h77v-137h-77z" />
    <glyph glyph-name="Ntilde" unicode="&#xd1;" horiz-adv-x="700" 
d="M196 476v-476h-152v668h201l258 -476v476h153v-668h-202zM283 846q24 0 40.5 -6.5t30 -14t26 -14t27.5 -6.5q14 0 23.5 5t19.5 16q18 20 36 20q26 0 37.5 -20t-1.5 -43q-16 -28 -47 -42.5t-62 -14.5q-36 0 -68 16q-18 9 -28.5 15t-23.5 7q-18 1 -30.5 -7.5t-15.5 -25.5
h-89q9 55 40 85t85 30z" />
    <glyph glyph-name="Ograve" unicode="&#xd2;" horiz-adv-x="764" 
d="M35 334q0 78 25 142t71 109t109.5 70t140.5 25t141 -25t110 -70t71.5 -109t25.5 -142t-25.5 -142t-71.5 -109t-110 -70t-141 -25t-140.5 25t-109.5 70t-71 109t-25 142zM202 334q0 -53 14.5 -93.5t39 -67.5t57 -41t68.5 -14q37 0 69.5 14t57 41t39 67.5t14.5 93.5
t-14.5 93.5t-39 67.5t-57 41t-69.5 14q-36 0 -68.5 -14t-57 -41t-39 -67.5t-14.5 -93.5zM226 829q0 22 17 39t39 17q21 0 38 -15l5.5 -6t14.5 -16t20 -22.5t23 -25.5q27 -30 62 -69h-125l-74 55q-10 10 -15 19.5t-5 23.5z" />
    <glyph glyph-name="Oacute" unicode="&#xd3;" horiz-adv-x="764" 
d="M35 334q0 78 25 142t71 109t109.5 70t140.5 25t141 -25t110 -70t71.5 -109t25.5 -142t-25.5 -142t-71.5 -109t-110 -70t-141 -25t-140.5 25t-109.5 70t-71 109t-25 142zM202 334q0 -53 14.5 -93.5t39 -67.5t57 -41t68.5 -14q37 0 69.5 14t57 41t39 67.5t14.5 93.5
t-14.5 93.5t-39 67.5t-57 41t-69.5 14q-36 0 -68.5 -14t-57 -41t-39 -67.5t-14.5 -93.5zM320 731q33 37 60 67q11 13 21.5 24.5t18.5 21.5q10 11 19 21l5 5q15 15 38 15t39.5 -16.5t16.5 -39.5q0 -24 -19 -43l-74 -55h-125z" />
    <glyph glyph-name="Ocircumflex" unicode="&#xd4;" horiz-adv-x="764" 
d="M35 334q0 78 25 142t71 109t109.5 70t140.5 25t141 -25t110 -70t71.5 -109t25.5 -142t-25.5 -142t-71.5 -109t-110 -70t-141 -25t-140.5 25t-109.5 70t-71 109t-25 142zM202 334q0 -53 14.5 -93.5t39 -67.5t57 -41t68.5 -14q37 0 69.5 14t57 41t39 67.5t14.5 93.5
t-14.5 93.5t-39 67.5t-57 41t-69.5 14q-36 0 -68.5 -14t-57 -41t-39 -67.5t-14.5 -93.5zM334 864q10 8 22.5 13.5t26.5 5.5q28 0 49 -19l148 -133h-129l-68 61l-67 -61h-129z" />
    <glyph glyph-name="Otilde" unicode="&#xd5;" horiz-adv-x="764" 
d="M35 334q0 78 25 142t71 109t109.5 70t140.5 25t141 -25t110 -70t71.5 -109t25.5 -142t-25.5 -142t-71.5 -109t-110 -70t-141 -25t-140.5 25t-109.5 70t-71 109t-25 142zM202 334q0 -53 14.5 -93.5t39 -67.5t57 -41t68.5 -14q37 0 69.5 14t57 41t39 67.5t14.5 93.5
t-14.5 93.5t-39 67.5t-57 41t-69.5 14q-36 0 -68.5 -14t-57 -41t-39 -67.5t-14.5 -93.5zM317 849q24 0 40.5 -6.5t30 -14t26 -14t27.5 -6.5q14 0 23.5 5t19.5 16q18 20 36 20q26 0 37.5 -20t-1.5 -43q-16 -28 -47 -42.5t-62 -14.5q-36 0 -68 16q-18 9 -28.5 15t-23.5 7
q-18 1 -30.5 -7.5t-15.5 -25.5h-89q9 55 40 85t85 30z" />
    <glyph glyph-name="Odieresis" unicode="&#xd6;" horiz-adv-x="764" 
d="M35 334q0 78 25 142t71 109t109.5 70t140.5 25t141 -25t110 -70t71.5 -109t25.5 -142t-25.5 -142t-71.5 -109t-110 -70t-141 -25t-140.5 25t-109.5 70t-71 109t-25 142zM202 334q0 -53 14.5 -93.5t39 -67.5t57 -41t68.5 -14q37 0 69.5 14t57 41t39 67.5t14.5 93.5
t-14.5 93.5t-39 67.5t-57 41t-69.5 14q-36 0 -68.5 -14t-57 -41t-39 -67.5t-14.5 -93.5zM215 796q0 29 21 50t50 21t49.5 -21t20.5 -50t-20.5 -49.5t-49.5 -20.5t-50 20.5t-21 49.5zM409 796q0 29 21 50t50 21t49 -21t20 -50t-20 -49.5t-49 -20.5t-50 20.5t-21 49.5z" />
    <glyph glyph-name="multiply" unicode="&#xd7;" horiz-adv-x="539" 
d="M359 248l136 -136l-91 -90l-134 136l-135 -136l-91 90l136 136l-139 137l91 91l138 -139l137 139l91 -91z" />
    <glyph glyph-name="Oslash" unicode="&#xd8;" horiz-adv-x="763" 
d="M380 679q57 0 106.5 -13.5t91.5 -39.5l45 53l56 -48l-44 -52q45 -45 69 -107.5t24 -137.5q0 -78 -25.5 -142t-71.5 -109t-110 -70t-141 -25q-59 0 -110.5 15t-93.5 43l-50 -58l-56 48l50 59q-41 45 -63 105.5t-22 133.5q0 78 25 141.5t71 108.5t109.5 70t139.5 25z
M380 118q37 0 69.5 14t57 41t39 67.5t14.5 93.5q0 74 -28 125l-260 -302q48 -39 108 -39zM226 217l257 299q-43 33 -103 33q-36 0 -68.5 -14t-56.5 -41t-38.5 -67t-14.5 -93q0 -66 24 -117z" />
    <glyph glyph-name="Ugrave" unicode="&#xd9;" horiz-adv-x="657" 
d="M41 292v376h158v-389q0 -37 4.5 -67t18.5 -51t39.5 -32.5t67.5 -11.5q41 0 66.5 11.5t39.5 32.5t18.5 51t4.5 67v389h158v-376q0 -154 -66 -229t-221 -75q-78 0 -133 18.5t-89.5 56t-50 95t-15.5 134.5zM172 829q0 22 17 39t39 17q21 0 38 -15l5.5 -6t14.5 -16t20 -22.5
t23 -25.5q27 -30 62 -69h-125l-74 55q-10 10 -15 19.5t-5 23.5z" />
    <glyph glyph-name="Uacute" unicode="&#xda;" horiz-adv-x="657" 
d="M41 292v376h158v-389q0 -37 4.5 -67t18.5 -51t39.5 -32.5t67.5 -11.5q41 0 66.5 11.5t39.5 32.5t18.5 51t4.5 67v389h158v-376q0 -154 -66 -229t-221 -75q-78 0 -133 18.5t-89.5 56t-50 95t-15.5 134.5zM266 731q33 37 60 67q11 13 21.5 24.5t18.5 21.5q10 11 19 21l5 5
q15 15 38 15t39.5 -16.5t16.5 -39.5q0 -24 -19 -43l-74 -55h-125z" />
    <glyph glyph-name="Ucircumflex" unicode="&#xdb;" horiz-adv-x="657" 
d="M41 292v376h158v-389q0 -37 4.5 -67t18.5 -51t39.5 -32.5t67.5 -11.5q41 0 66.5 11.5t39.5 32.5t18.5 51t4.5 67v389h158v-376q0 -154 -66 -229t-221 -75q-78 0 -133 18.5t-89.5 56t-50 95t-15.5 134.5zM279 864q10 8 22.5 13.5t26.5 5.5q28 0 49 -19l148 -133h-129
l-68 61l-67 -61h-129z" />
    <glyph glyph-name="Udieresis" unicode="&#xdc;" horiz-adv-x="657" 
d="M41 292v376h158v-389q0 -37 4.5 -67t18.5 -51t39.5 -32.5t67.5 -11.5q41 0 66.5 11.5t39.5 32.5t18.5 51t4.5 67v389h158v-376q0 -154 -66 -229t-221 -75q-78 0 -133 18.5t-89.5 56t-50 95t-15.5 134.5zM162 796q0 29 21 50t50 21t49.5 -21t20.5 -50t-20.5 -49.5
t-49.5 -20.5t-50 20.5t-21 49.5zM356 796q0 29 21 50t50 21t49 -21t20 -50t-20 -49.5t-49 -20.5t-50 20.5t-21 49.5z" />
    <glyph glyph-name="Yacute" unicode="&#xdd;" horiz-adv-x="687" 
d="M10 668h184l149 -257l149 257h185l-255 -408v-260h-157v260zM281 731q33 37 60 67q11 13 21.5 24.5t18.5 21.5q10 11 19 21l5 5q15 15 38 15t39.5 -16.5t16.5 -39.5q0 -24 -19 -43l-74 -55h-125z" />
    <glyph glyph-name="Thorn" unicode="&#xde;" horiz-adv-x="623" 
d="M44 667h159v-105h88q65 0 120 -9.5t95.5 -34t63.5 -67t23 -108.5q0 -65 -23 -106.5t-63.5 -65.5t-95.5 -33.5t-120 -9.5h-88v-128h-159v667zM203 425v-156h93q27 0 50.5 2.5t41.5 10.5t28 23.5t10 40.5q0 27 -10 42.5t-28 23.5t-41.5 10.5t-50.5 2.5h-93z" />
    <glyph glyph-name="germandbls" unicode="&#xdf;" horiz-adv-x="629" 
d="M44 0v435q0 68 19 115t54.5 75.5t86.5 41t115 12.5q51 0 94.5 -12t75.5 -35t50 -58t18 -81q0 -42 -16.5 -74t-36.5 -49q40 -21 67.5 -62t27.5 -104q0 -55 -18 -95.5t-50 -67.5t-76.5 -40t-97.5 -13h-19t-19 1l-41 134q33 -9 67 -9q38 0 68 21.5t30 62.5q0 55 -37 77.5
t-97 22.5h-31v117h26q106 0 106 71q0 30 -22.5 50t-72.5 20q-36 0 -59 -8t-36 -24.5t-18 -41.5t-5 -58v-424h-153z" />
    <glyph glyph-name="agrave" unicode="&#xe0;" horiz-adv-x="548" 
d="M19 134q0 45 24.5 76.5t68 51.5t104 31.5t132.5 16.5v19q0 43 -21.5 60.5t-61.5 17.5q-32 0 -55 -14.5t-31 -44.5l-128 46q25 50 83 83t144 33q106 0 163 -47t57 -160v-109q0 -24 1.5 -51.5t3.5 -53.5t5 -49.5t7 -39.5h-141l-18 60q-28 -39 -70 -55.5t-96 -16.5
q-35 0 -66 10t-54.5 29t-37 46t-13.5 61zM246 92q45 0 75 24t30 92v12q-79 -7 -127 -21.5t-48 -53.5q0 -24 20 -38.5t50 -14.5zM145 671q0 23 16.5 40t39.5 17q21 0 38 -15l114 -139h-114l-75 55q-19 19 -19 42z" />
    <glyph glyph-name="aacute" unicode="&#xe1;" horiz-adv-x="548" 
d="M19 134q0 45 24.5 76.5t68 51.5t104 31.5t132.5 16.5v19q0 43 -21.5 60.5t-61.5 17.5q-32 0 -55 -14.5t-31 -44.5l-128 46q25 50 83 83t144 33q106 0 163 -47t57 -160v-109q0 -24 1.5 -51.5t3.5 -53.5t5 -49.5t7 -39.5h-141l-18 60q-28 -39 -70 -55.5t-96 -16.5
q-35 0 -66 10t-54.5 29t-37 46t-13.5 61zM246 92q45 0 75 24t30 92v12q-79 -7 -127 -21.5t-48 -53.5q0 -24 20 -38.5t50 -14.5zM342 709q3 4 13 11t28 7q24 0 40 -16t16 -40q0 -26 -19 -42l-75 -55h-114z" />
    <glyph glyph-name="acircumflex" unicode="&#xe2;" horiz-adv-x="548" 
d="M19 134q0 45 24.5 76.5t68 51.5t104 31.5t132.5 16.5v19q0 43 -21.5 60.5t-61.5 17.5q-32 0 -55 -14.5t-31 -44.5l-128 46q25 50 83 83t144 33q106 0 163 -47t57 -160v-109q0 -24 1.5 -51.5t3.5 -53.5t5 -49.5t7 -39.5h-141l-18 60q-28 -39 -70 -55.5t-96 -16.5
q-35 0 -66 10t-54.5 29t-37 46t-13.5 61zM246 92q45 0 75 24t30 92v12q-79 -7 -127 -21.5t-48 -53.5q0 -24 20 -38.5t50 -14.5zM83 574l147 132q22 20 50 20q27 0 50 -20l146 -132h-128l-68 61l-68 -61h-129z" />
    <glyph glyph-name="atilde" unicode="&#xe3;" horiz-adv-x="548" 
d="M19 134q0 45 24.5 76.5t68 51.5t104 31.5t132.5 16.5v19q0 43 -21.5 60.5t-61.5 17.5q-32 0 -55 -14.5t-31 -44.5l-128 46q25 50 83 83t144 33q106 0 163 -47t57 -160v-109q0 -24 1.5 -51.5t3.5 -53.5t5 -49.5t7 -39.5h-141l-18 60q-28 -39 -70 -55.5t-96 -16.5
q-35 0 -66 10t-54.5 29t-37 46t-13.5 61zM246 92q45 0 75 24t30 92v12q-79 -7 -127 -21.5t-48 -53.5q0 -24 20 -38.5t50 -14.5zM220 689q24 0 40.5 -6.5t30 -14t26 -14t27.5 -6.5q14 0 23.5 5t19.5 16q18 20 36 20q26 0 37.5 -20t-1.5 -43q-16 -28 -47 -42.5t-62 -14.5
q-36 0 -68 16q-18 9 -28.5 15t-23.5 7q-18 1 -30.5 -7.5t-15.5 -25.5h-89q9 55 40 85t85 30z" />
    <glyph glyph-name="adieresis" unicode="&#xe4;" horiz-adv-x="548" 
d="M19 134q0 45 24.5 76.5t68 51.5t104 31.5t132.5 16.5v19q0 43 -21.5 60.5t-61.5 17.5q-32 0 -55 -14.5t-31 -44.5l-128 46q25 50 83 83t144 33q106 0 163 -47t57 -160v-109q0 -24 1.5 -51.5t3.5 -53.5t5 -49.5t7 -39.5h-141l-18 60q-28 -39 -70 -55.5t-96 -16.5
q-35 0 -66 10t-54.5 29t-37 46t-13.5 61zM246 92q45 0 75 24t30 92v12q-79 -7 -127 -21.5t-48 -53.5q0 -24 20 -38.5t50 -14.5zM117 648q0 29 21 50t50 21t49.5 -21t20.5 -50t-20.5 -49.5t-49.5 -20.5t-50 20.5t-21 49.5zM311 648q0 29 21 50t50 21t49 -21t20 -50t-20 -49.5
t-49 -20.5t-50 20.5t-21 49.5z" />
    <glyph glyph-name="aring" unicode="&#xe5;" horiz-adv-x="548" 
d="M19 134q0 45 24.5 76.5t68 51.5t104 31.5t132.5 16.5v19q0 43 -21.5 60.5t-61.5 17.5q-32 0 -55 -14.5t-31 -44.5l-128 46q25 50 83 83t144 33q106 0 163 -47t57 -160v-109q0 -24 1.5 -51.5t3.5 -53.5t5 -49.5t7 -39.5h-141l-18 60q-28 -39 -70 -55.5t-96 -16.5
q-35 0 -66 10t-54.5 29t-37 46t-13.5 61zM246 92q45 0 75 24t30 92v12q-79 -7 -127 -21.5t-48 -53.5q0 -24 20 -38.5t50 -14.5zM287 800q27 0 51.5 -10.5t42.5 -28.5t28.5 -42t10.5 -51t-10.5 -51.5t-28.5 -42.5t-42.5 -28.5t-51.5 -10.5t-51 10.5t-42 28.5t-28.5 42.5
t-10.5 51.5t10.5 51t28.5 42t42 28.5t51 10.5zM240 668q0 -20 13.5 -33.5t33.5 -13.5t33.5 13.5t13.5 33.5t-13.5 33.5t-33.5 13.5t-33.5 -13.5t-13.5 -33.5z" />
    <glyph glyph-name="ae" unicode="&#xe6;" horiz-adv-x="878" 
d="M19 135q0 31 13.5 60.5t50.5 53t101 37.5t164 14v29q0 43 -21.5 60.5t-61.5 17.5q-32 0 -55 -14.5t-31 -44.5l-128 46q25 50 83 83t144 33q53 0 94 -11t70 -37q68 48 158 48q62 0 111 -22.5t82.5 -62t50 -95t12.5 -121.5h-368q2 -26 12 -45.5t26 -32t35.5 -19t40.5 -6.5
q36 0 61.5 10t40.5 27l120 -44q-39 -58 -97.5 -84.5t-119.5 -26.5q-66 0 -118 20.5t-89 58.5q-5 -5 -9 -10t-9 -10q-32 -32 -83.5 -47.5t-108.5 -10.5q-35 3 -66 13.5t-54.5 28.5t-37 44t-13.5 60zM487 299h227q-2 48 -33.5 72.5t-76.5 24.5q-42 0 -76 -23t-41 -74zM176 148
q0 -24 20 -40.5t50 -16.5q45 0 75 24.5t30 92.5v1q-83 1 -129 -10.5t-46 -50.5z" />
    <glyph glyph-name="ccedilla" unicode="&#xe7;" horiz-adv-x="520" 
d="M278 510q32 0 64.5 -6.5t62 -21.5t55 -40t42.5 -62l-127 -46q-12 32 -35.5 45t-52.5 13q-21 0 -40.5 -7.5t-34.5 -24t-24 -44t-9 -66.5q0 -40 9.5 -68t24.5 -44.5t34.5 -24t39.5 -7.5q32 0 54 12.5t35 34.5l124 -45q-19 -34 -45 -57t-55.5 -37t-60.5 -20t-61 -6
q-61 0 -108.5 19t-80 53.5t-49 83t-16.5 107.5t18.5 106.5t52 81.5t80 52.5t103.5 18.5zM166 -173l16 50q8 -5 25.5 -9t35.5 -4t31 6t13 21q0 12 -10 19t-27 7q-12 0 -27 -5q-9 -3 -17 2t-10.5 12.5t2.5 15.5l52 84l41 -25l-30 -48q14 3 34 3q14 0 29.5 -3t28 -10.5
t20.5 -19.5t8 -29q0 -22 -11 -37t-28.5 -24.5t-40.5 -14t-47 -4.5t-46.5 3.5t-41.5 9.5z" />
    <glyph glyph-name="egrave" unicode="&#xe8;" horiz-adv-x="566" 
d="M24 251q0 59 21 107t57.5 82t85 52t102.5 18q61 0 110 -22.5t82 -62t49.5 -94.5t12.5 -121h-367q4 -53 38.5 -78.5t76.5 -25.5q35 0 60.5 10t39.5 27l121 -44q-39 -57 -97.5 -84t-119.5 -27q-60 0 -110 18t-86 52t-56 83t-20 110zM177 300h226q-2 48 -33 72.5t-76 24.5
q-43 0 -76.5 -23t-40.5 -74zM140 671q0 23 16.5 40t39.5 17q21 0 38 -15l114 -139h-114l-75 55q-19 19 -19 42z" />
    <glyph glyph-name="eacute" unicode="&#xe9;" horiz-adv-x="566" 
d="M24 251q0 59 21 107t57.5 82t85 52t102.5 18q61 0 110 -22.5t82 -62t49.5 -94.5t12.5 -121h-367q4 -53 38.5 -78.5t76.5 -25.5q35 0 60.5 10t39.5 27l121 -44q-39 -57 -97.5 -84t-119.5 -27q-60 0 -110 18t-86 52t-56 83t-20 110zM177 300h226q-2 48 -33 72.5t-76 24.5
q-43 0 -76.5 -23t-40.5 -74zM344 709q3 4 13 11t28 7q24 0 40 -16t16 -40q0 -26 -19 -42l-75 -55h-114z" />
    <glyph glyph-name="ecircumflex" unicode="&#xea;" horiz-adv-x="566" 
d="M24 251q0 59 21 107t57.5 82t85 52t102.5 18q61 0 110 -22.5t82 -62t49.5 -94.5t12.5 -121h-367q4 -53 38.5 -78.5t76.5 -25.5q35 0 60.5 10t39.5 27l121 -44q-39 -57 -97.5 -84t-119.5 -27q-60 0 -110 18t-86 52t-56 83t-20 110zM177 300h226q-2 48 -33 72.5t-76 24.5
q-43 0 -76.5 -23t-40.5 -74zM93 574l147 132q22 20 50 20q27 0 50 -20l146 -132h-128l-68 61l-68 -61h-129z" />
    <glyph glyph-name="edieresis" unicode="&#xeb;" horiz-adv-x="566" 
d="M24 251q0 59 21 107t57.5 82t85 52t102.5 18q61 0 110 -22.5t82 -62t49.5 -94.5t12.5 -121h-367q4 -53 38.5 -78.5t76.5 -25.5q35 0 60.5 10t39.5 27l121 -44q-39 -57 -97.5 -84t-119.5 -27q-60 0 -110 18t-86 52t-56 83t-20 110zM177 300h226q-2 48 -33 72.5t-76 24.5
q-43 0 -76.5 -23t-40.5 -74zM114 648q0 29 21 50t50 21t49.5 -21t20.5 -50t-20.5 -49.5t-49.5 -20.5t-50 20.5t-21 49.5zM308 648q0 29 21 50t50 21t49 -21t20 -50t-20 -49.5t-49 -20.5t-50 20.5t-21 49.5z" />
    <glyph glyph-name="igrave" unicode="&#xec;" horiz-adv-x="301" 
d="M271 496v-496h-153v381h-94v115h247zM46 671q0 23 16.5 40t39.5 17q21 0 38 -15l114 -139h-114l-75 55q-19 19 -19 42z" />
    <glyph glyph-name="iacute" unicode="&#xed;" horiz-adv-x="301" 
d="M271 496v-496h-153v381h-94v115h247zM235 709q3 4 13 11t28 7q24 0 40 -16t16 -40q0 -26 -19 -42l-75 -55h-114z" />
    <glyph glyph-name="icircumflex" unicode="&#xee;" horiz-adv-x="301" 
d="M271 496v-496h-153v381h-94v115h247zM-14 574l147 132q22 20 50 20q27 0 50 -20l146 -132h-128l-68 61l-68 -61h-129z" />
    <glyph glyph-name="idieresis" unicode="&#xef;" horiz-adv-x="301" 
d="M271 496v-496h-153v381h-94v115h247zM3 648q0 29 21 50t50 21t49.5 -21t20.5 -50t-20.5 -49.5t-49.5 -20.5t-50 20.5t-21 49.5zM197 648q0 29 21 50t50 21t49 -21t20 -50t-20 -49.5t-49 -20.5t-50 20.5t-21 49.5z" />
    <glyph glyph-name="eth" unicode="&#xf0;" horiz-adv-x="585" 
d="M253 452q50 0 83.5 -13t59.5 -36q-1 91 -62 144l-63 -64l-48 47l53 53q-48 21 -113 21v122q66 0 116.5 -12.5t90.5 -35.5l56 56l48 -48l-48 -47q3 -2 6 -5l5 -5q67 -67 92 -143t25 -168q0 -69 -15.5 -129.5t-48 -105t-83 -70t-121.5 -25.5q-57 0 -105 16.5t-83 46.5
t-54.5 73t-19.5 96q0 51 19 93.5t50.5 73t73 48t86.5 17.5zM286 101q49 0 78.5 32.5t29.5 86.5t-30 86t-78 32q-50 0 -78 -33t-28 -85q0 -54 28 -86.5t78 -32.5z" />
    <glyph glyph-name="ntilde" unicode="&#xf1;" horiz-adv-x="572" 
d="M50 0v496h133l19 -66q17 28 56.5 54t96.5 26q96 0 131.5 -53.5t35.5 -154.5v-302h-152v264q0 26 -1.5 49.5t-9 41t-23 27.5t-42.5 10q-48 0 -70 -34.5t-22 -102.5v-255h-152zM221 689q24 0 40.5 -6.5t30 -14t26 -14t27.5 -6.5q14 0 23.5 5t19.5 16q18 20 36 20
q26 0 37.5 -20t-1.5 -43q-16 -28 -47 -42.5t-62 -14.5q-36 0 -68 16q-18 9 -28.5 15t-23.5 7q-18 1 -30.5 -7.5t-15.5 -25.5h-89q9 55 40 85t85 30z" />
    <glyph glyph-name="ograve" unicode="&#xf2;" 
d="M24 250q0 67 21.5 116t58 81t84 47.5t99.5 15.5q51 0 98.5 -15.5t83.5 -47.5t58 -81t22 -116t-22 -116.5t-58 -81.5t-83.5 -48t-98.5 -16q-52 0 -99.5 16t-84 48t-58 81.5t-21.5 116.5zM287 106q46 0 76.5 33t30.5 111q0 79 -31.5 110.5t-75.5 31.5q-45 0 -76.5 -31.5
t-31.5 -110.5q0 -78 30.5 -111t77.5 -33zM135 671q0 23 16.5 40t39.5 17q21 0 38 -15l114 -139h-114l-75 55q-19 19 -19 42z" />
    <glyph glyph-name="oacute" unicode="&#xf3;" 
d="M24 250q0 67 21.5 116t58 81t84 47.5t99.5 15.5q51 0 98.5 -15.5t83.5 -47.5t58 -81t22 -116t-22 -116.5t-58 -81.5t-83.5 -48t-98.5 -16q-52 0 -99.5 16t-84 48t-58 81.5t-21.5 116.5zM287 106q46 0 76.5 33t30.5 111q0 79 -31.5 110.5t-75.5 31.5q-45 0 -76.5 -31.5
t-31.5 -110.5q0 -78 30.5 -111t77.5 -33zM340 709q3 4 13 11t28 7q24 0 40 -16t16 -40q0 -26 -19 -42l-75 -55h-114z" />
    <glyph glyph-name="ocircumflex" unicode="&#xf4;" 
d="M24 250q0 67 21.5 116t58 81t84 47.5t99.5 15.5q51 0 98.5 -15.5t83.5 -47.5t58 -81t22 -116t-22 -116.5t-58 -81.5t-83.5 -48t-98.5 -16q-52 0 -99.5 16t-84 48t-58 81.5t-21.5 116.5zM287 106q46 0 76.5 33t30.5 111q0 79 -31.5 110.5t-75.5 31.5q-45 0 -76.5 -31.5
t-31.5 -110.5q0 -78 30.5 -111t77.5 -33zM90 574l147 132q22 20 50 20q27 0 50 -20l146 -132h-128l-68 61l-68 -61h-129z" />
    <glyph glyph-name="otilde" unicode="&#xf5;" 
d="M24 250q0 67 21.5 116t58 81t84 47.5t99.5 15.5q51 0 98.5 -15.5t83.5 -47.5t58 -81t22 -116t-22 -116.5t-58 -81.5t-83.5 -48t-98.5 -16q-52 0 -99.5 16t-84 48t-58 81.5t-21.5 116.5zM287 106q46 0 76.5 33t30.5 111q0 79 -31.5 110.5t-75.5 31.5q-45 0 -76.5 -31.5
t-31.5 -110.5q0 -78 30.5 -111t77.5 -33zM221 689q24 0 40.5 -6.5t30 -14t26 -14t27.5 -6.5q14 0 23.5 5t19.5 16q18 20 36 20q26 0 37.5 -20t-1.5 -43q-16 -28 -47 -42.5t-62 -14.5q-36 0 -68 16q-18 9 -28.5 15t-23.5 7q-18 1 -30.5 -7.5t-15.5 -25.5h-89q9 55 40 85
t85 30z" />
    <glyph glyph-name="odieresis" unicode="&#xf6;" 
d="M24 250q0 67 21.5 116t58 81t84 47.5t99.5 15.5q51 0 98.5 -15.5t83.5 -47.5t58 -81t22 -116t-22 -116.5t-58 -81.5t-83.5 -48t-98.5 -16q-52 0 -99.5 16t-84 48t-58 81.5t-21.5 116.5zM287 106q46 0 76.5 33t30.5 111q0 79 -31.5 110.5t-75.5 31.5q-45 0 -76.5 -31.5
t-31.5 -110.5q0 -78 30.5 -111t77.5 -33zM119 648q0 29 21 50t50 21t49.5 -21t20.5 -50t-20.5 -49.5t-49.5 -20.5t-50 20.5t-21 49.5zM313 648q0 29 21 50t50 21t49 -21t20 -50t-20 -49.5t-49 -20.5t-50 20.5t-21 49.5z" />
    <glyph glyph-name="divide" unicode="&#xf7;" horiz-adv-x="594" 
d="M553 314v-128h-512v128h512zM218 431q0 33 23.5 56t55.5 23t55.5 -23t23.5 -56t-23.5 -56.5t-55.5 -23.5t-55.5 23.5t-23.5 56.5zM297 147q32 0 55.5 -23.5t23.5 -55.5q0 -33 -23.5 -56.5t-55.5 -23.5t-55.5 23.5t-23.5 56.5q0 32 23.5 55.5t55.5 23.5z" />
    <glyph glyph-name="oslash" unicode="&#xf8;" 
d="M287 510q38 0 73.5 -8.5t66.5 -25.5l42 48l56 -48l-39 -45q29 -32 46 -76.5t17 -104.5q0 -67 -22 -116.5t-58 -82t-83.5 -48t-98.5 -15.5q-84 0 -149 39l-46 -53l-56 48l46 53q-27 32 -42.5 75t-15.5 100q0 67 21.5 116t58 81t84 47.5t99.5 15.5zM287 106q46 0 76.5 33
t30.5 111q0 36 -8 66l-163 -190q26 -20 64 -20zM185 194l157 183q-24 15 -55 15q-45 0 -76.5 -32t-31.5 -110q0 -32 6 -56z" />
    <glyph glyph-name="ugrave" unicode="&#xf9;" horiz-adv-x="570" 
d="M50 198v298h152v-260q0 -27 1.5 -50.5t9 -41t22.5 -28t43 -10.5q48 0 68 30t20 99v261h153v-496h-132l-21 70q-22 -37 -54.5 -59.5t-89.5 -22.5q-49 0 -82.5 14t-53 40.5t-28 65.5t-8.5 90zM191 728q23 0 38 -15l5 -5q8 -10 17 -21q8 -10 17.5 -21.5t20.5 -24.5
q23 -30 54 -67h-114l-75 55q-19 19 -19 43q0 23 16.5 39.5t39.5 16.5z" />
    <glyph glyph-name="uacute" unicode="&#xfa;" horiz-adv-x="570" 
d="M50 496h152v-260q0 -27 1.5 -50.5t9 -41t22.5 -28t43 -10.5q48 0 68 30t20 99v261h153v-496h-132l-21 70q-22 -37 -54.5 -59.5t-89.5 -22.5q-49 0 -82.5 14t-53 40.5t-28 65.5t-8.5 90v298zM340 709q3 4 13 11t28 7q24 0 40 -16t16 -40q0 -26 -19 -42l-75 -55h-114z" />
    <glyph glyph-name="ucircumflex" unicode="&#xfb;" horiz-adv-x="570" 
d="M50 496h152v-260q0 -27 1.5 -50.5t9 -41t22.5 -28t43 -10.5q48 0 68 30t20 99v261h153v-496h-132l-21 70q-22 -37 -54.5 -59.5t-89.5 -22.5q-49 0 -82.5 14t-53 40.5t-28 65.5t-8.5 90v298zM88 574l147 132q22 20 50 20q27 0 50 -20l146 -132h-128l-68 61l-68 -61h-129z
" />
    <glyph glyph-name="udieresis" unicode="&#xfc;" horiz-adv-x="570" 
d="M50 496h152v-260q0 -27 1.5 -50.5t9 -41t22.5 -28t43 -10.5q48 0 68 30t20 99v261h153v-496h-132l-21 70q-22 -37 -54.5 -59.5t-89.5 -22.5q-49 0 -82.5 14t-53 40.5t-28 65.5t-8.5 90v298zM116 648q0 29 21 50t50 21t49.5 -21t20.5 -50t-20.5 -49.5t-49.5 -20.5
t-50 20.5t-21 49.5zM310 648q0 29 21 50t50 21t49 -21t20 -50t-20 -49.5t-49 -20.5t-50 20.5t-21 49.5z" />
    <glyph glyph-name="yacute" unicode="&#xfd;" horiz-adv-x="518" 
d="M0 496h163l97 -310l95 310h163l-190 -496q-18 -47 -35.5 -78t-41 -49.5t-56.5 -26t-81 -7.5h-49v110h30q24 0 39 1t24.5 5t15 12.5t11.5 22.5l5 13zM312 709q3 4 13 11t28 7q24 0 40 -16t16 -40q0 -26 -19 -42l-75 -55h-114z" />
    <glyph glyph-name="thorn" unicode="&#xfe;" horiz-adv-x="596" 
d="M50 668h152v-240q24 41 67.5 61.5t83.5 20.5q48 0 88 -18.5t69.5 -52.5t45.5 -83t16 -109q0 -61 -16 -109t-45.5 -81.5t-69.5 -51t-88 -17.5q-40 0 -83.5 20.5t-67.5 61.5v-231h-152v829zM305 106q45 0 77 36t32 105t-32 107t-77 38t-77.5 -32.5t-32.5 -108.5
q0 -78 32.5 -111.5t77.5 -33.5z" />
    <glyph glyph-name="ydieresis" unicode="&#xff;" horiz-adv-x="518" 
d="M0 496h163l97 -310l95 310h163l-190 -496q-18 -47 -35.5 -78t-41 -49.5t-56.5 -26t-81 -7.5h-49v110h30q24 0 39 1t24.5 5t15 12.5t11.5 22.5l5 13zM92 648q0 29 21 50t50 21t49.5 -21t20.5 -50t-20.5 -49.5t-49.5 -20.5t-50 20.5t-21 49.5zM286 648q0 29 21 50t50 21
t49 -21t20 -50t-20 -49.5t-49 -20.5t-50 20.5t-21 49.5z" />
    <glyph glyph-name="Amacron" unicode="&#x100;" horiz-adv-x="690" 
d="M258 668h174l253 -668h-172l-40 119h-256l-40 -119h-172zM260 247h170l-86 254zM195 746v98h299v-98h-299z" />
    <glyph glyph-name="amacron" unicode="&#x101;" horiz-adv-x="548" 
d="M19 134q0 45 24.5 76.5t68 51.5t104 31.5t132.5 16.5v19q0 43 -21.5 60.5t-61.5 17.5q-32 0 -55 -14.5t-31 -44.5l-128 46q25 50 83 83t144 33q106 0 163 -47t57 -160v-109q0 -24 1.5 -51.5t3.5 -53.5t5 -49.5t7 -39.5h-141l-18 60q-28 -39 -70 -55.5t-96 -16.5
q-35 0 -66 10t-54.5 29t-37 46t-13.5 61zM246 92q45 0 75 24t30 92v12q-79 -7 -127 -21.5t-48 -53.5q0 -24 20 -38.5t50 -14.5zM138 570v98h299v-98h-299z" />
    <glyph glyph-name="Abreve" unicode="&#x102;" horiz-adv-x="690" 
d="M258 668h174l253 -668h-172l-40 119h-256l-40 -119h-172zM260 247h170l-86 254zM287 851q4 -16 19.5 -29.5t38.5 -13.5t39 13.5t20 29.5h85q-9 -51 -49.5 -85.5t-94.5 -34.5q-27 0 -51 9t-43 25.5t-31.5 38.5t-17.5 47h85z" />
    <glyph glyph-name="abreve" unicode="&#x103;" horiz-adv-x="548" 
d="M19 134q0 45 24.5 76.5t68 51.5t104 31.5t132.5 16.5v19q0 43 -21.5 60.5t-61.5 17.5q-32 0 -55 -14.5t-31 -44.5l-128 46q25 50 83 83t144 33q106 0 163 -47t57 -160v-109q0 -24 1.5 -51.5t3.5 -53.5t5 -49.5t7 -39.5h-141l-18 60q-28 -39 -70 -55.5t-96 -16.5
q-35 0 -66 10t-54.5 29t-37 46t-13.5 61zM246 92q45 0 75 24t30 92v12q-79 -7 -127 -21.5t-48 -53.5q0 -24 20 -38.5t50 -14.5zM229 689q4 -16 19.5 -29.5t38.5 -13.5t39 13.5t20 29.5h85q-9 -51 -49.5 -85.5t-94.5 -34.5q-27 0 -51 9t-43 25.5t-31.5 38.5t-17.5 47h85z" />
    <glyph glyph-name="Aogonek" unicode="&#x104;" horiz-adv-x="690" 
d="M258 668h174l253 -668h-172l-40 119h-256l-40 -119h-172zM260 247h170l-86 254zM514 0h141q-15 -2 -31.5 -8t-30.5 -15t-23.5 -20.5t-9.5 -24.5q0 -18 14.5 -24t31.5 -6q15 0 29 3.5t20 5.5v-75q-11 -4 -35.5 -7t-43.5 -3q-40 0 -67.5 8.5t-44 21.5t-23.5 29t-7 30
q0 35 25.5 55.5t54.5 29.5z" />
    <glyph glyph-name="aogonek" unicode="&#x105;" horiz-adv-x="548" 
d="M19 134q0 45 24.5 76.5t68 51.5t104 31.5t132.5 16.5v19q0 43 -21.5 60.5t-61.5 17.5q-32 0 -55 -14.5t-31 -44.5l-128 46q25 50 83 83t144 33q106 0 163 -47t57 -160v-109q0 -24 1.5 -51.5t3.5 -53.5t5 -49.5t7 -39.5h-141l-18 60q-28 -39 -70 -55.5t-96 -16.5
q-35 0 -66 10t-54.5 29t-37 46t-13.5 61zM246 92q45 0 75 24t30 92v12q-79 -7 -127 -21.5t-48 -53.5q0 -24 20 -38.5t50 -14.5zM374 0h141q-17 -9 -34 -17t-30.5 -16.5t-22 -17t-8.5 -17.5q0 -18 14.5 -24t31.5 -6q15 0 29 3.5t20 5.5v-75q-11 -4 -35.5 -7t-43.5 -3
q-40 0 -67.5 8.5t-44 21.5t-23.5 29t-7 30q0 35 25.5 55.5t54.5 29.5z" />
    <glyph glyph-name="Cacute" unicode="&#x106;" horiz-adv-x="681" 
d="M373 680q95 0 165.5 -42t108.5 -113l-140 -51q-23 41 -60.5 58.5t-78.5 17.5q-35 0 -65 -14.5t-52.5 -42.5t-35.5 -68t-13 -91q0 -52 13 -92.5t35.5 -68t53 -41.5t66.5 -14q38 0 78.5 16t63.5 59l139 -51q-41 -72 -114 -113t-168 -41q-78 0 -140 24t-105 69t-66 109
t-23 144q0 79 23.5 143t67.5 109t106.5 69.5t140.5 24.5zM305 731q33 37 60 67q11 13 21.5 24.5t18.5 21.5q10 11 19 21l5 5q15 15 38 15t39.5 -16.5t16.5 -39.5q0 -24 -19 -43l-74 -55h-125z" />
    <glyph glyph-name="cacute" unicode="&#x107;" horiz-adv-x="520" 
d="M278 510q32 0 64.5 -6.5t62 -21.5t55 -40t42.5 -62l-127 -46q-12 32 -35.5 45t-52.5 13q-21 0 -40.5 -7.5t-34.5 -24t-24 -44t-9 -66.5q0 -40 9.5 -68t24.5 -44.5t34.5 -24t39.5 -7.5q32 0 54 12.5t35 34.5l124 -45q-19 -34 -45 -57t-55.5 -37t-60.5 -20t-61 -6
q-61 0 -108.5 19t-80 53.5t-49 83t-16.5 107.5t18.5 106.5t52 81.5t80 52.5t103.5 18.5zM329 709q3 4 13 11t28 7q24 0 40 -16t16 -40q0 -26 -19 -42l-75 -55h-114z" />
    <glyph glyph-name="Cdotaccent" unicode="&#x10a;" horiz-adv-x="681" 
d="M373 680q95 0 165.5 -42t108.5 -113l-140 -51q-23 41 -60.5 58.5t-78.5 17.5q-35 0 -65 -14.5t-52.5 -42.5t-35.5 -68t-13 -91q0 -52 13 -92.5t35.5 -68t53 -41.5t66.5 -14q38 0 78.5 16t63.5 59l139 -51q-41 -72 -114 -113t-168 -41q-78 0 -140 24t-105 69t-66 109
t-23 144q0 79 23.5 143t67.5 109t106.5 69.5t140.5 24.5zM298 796q0 29 21 50t50 21t49.5 -21t20.5 -50t-20.5 -49.5t-49.5 -20.5t-50 20.5t-21 49.5z" />
    <glyph glyph-name="cdotaccent" unicode="&#x10b;" horiz-adv-x="520" 
d="M278 510q32 0 64.5 -6.5t62 -21.5t55 -40t42.5 -62l-127 -46q-12 32 -35.5 45t-52.5 13q-21 0 -40.5 -7.5t-34.5 -24t-24 -44t-9 -66.5q0 -40 9.5 -68t24.5 -44.5t34.5 -24t39.5 -7.5q32 0 54 12.5t35 34.5l124 -45q-19 -34 -45 -57t-55.5 -37t-60.5 -20t-61 -6
q-61 0 -108.5 19t-80 53.5t-49 83t-16.5 107.5t18.5 106.5t52 81.5t80 52.5t103.5 18.5zM210 654q0 29 21 50t50 21t49.5 -21t20.5 -50t-20.5 -49.5t-49.5 -20.5t-50 20.5t-21 49.5z" />
    <glyph glyph-name="Ccaron" unicode="&#x10c;" horiz-adv-x="681" 
d="M373 680q95 0 165.5 -42t108.5 -113l-140 -51q-23 41 -60.5 58.5t-78.5 17.5q-35 0 -65 -14.5t-52.5 -42.5t-35.5 -68t-13 -91q0 -52 13 -92.5t35.5 -68t53 -41.5t66.5 -14q38 0 78.5 16t63.5 59l139 -51q-41 -72 -114 -113t-168 -41q-78 0 -140 24t-105 69t-66 109
t-23 144q0 79 23.5 143t67.5 109t106.5 69.5t140.5 24.5zM173 877h129l68 -61l68 61h128l-146 -133q-22 -19 -50 -19q-29 0 -50 19z" />
    <glyph glyph-name="ccaron" unicode="&#x10d;" horiz-adv-x="520" 
d="M278 510q32 0 64.5 -6.5t62 -21.5t55 -40t42.5 -62l-127 -46q-12 32 -35.5 45t-52.5 13q-21 0 -40.5 -7.5t-34.5 -24t-24 -44t-9 -66.5q0 -40 9.5 -68t24.5 -44.5t34.5 -24t39.5 -7.5q32 0 54 12.5t35 34.5l124 -45q-19 -34 -45 -57t-55.5 -37t-60.5 -20t-61 -6
q-61 0 -108.5 19t-80 53.5t-49 83t-16.5 107.5t18.5 106.5t52 81.5t80 52.5t103.5 18.5zM88 720h129l68 -61l68 61h128l-146 -133q-22 -19 -50 -19q-29 0 -50 19z" />
    <glyph glyph-name="Dcaron" unicode="&#x10e;" horiz-adv-x="682" 
d="M264 668q82 0 152.5 -16.5t122.5 -55.5t82 -103t30 -159q0 -96 -30 -160t-82 -102.5t-122.5 -55t-152.5 -16.5h-220v668h220zM202 133h65q43 0 83 6.5t70.5 28t49 61t18.5 105.5t-18.5 106t-49 61.5t-70.5 28.5t-83 7h-65v-404zM134 877h129l68 -61l68 61h128l-146 -133
q-22 -19 -50 -19q-29 0 -50 19z" />
    <glyph glyph-name="dcaron" unicode="&#x10f;" horiz-adv-x="657" 
d="M243 510q41 0 84 -20t67 -62v240h152v-474q0 -38 3 -88.5t14 -105.5h-145l-20 67q-32 -43 -73 -61t-82 -18q-48 0 -88 18.5t-69.5 53t-45.5 83t-16 109.5t16 109t45.5 81t69.5 50.5t88 17.5zM292 106q44 0 76.5 33t32.5 110q0 76 -32 109.5t-77 33.5t-77.5 -35.5
t-32.5 -104.5t32.5 -107.5t77.5 -38.5zM600 641q4 23 21.5 35t34.5 12q26 0 40.5 -18.5t14.5 -38.5q0 -9 -3 -17l-52 -118h-80z" />
    <glyph glyph-name="Dcroat" unicode="&#x110;" horiz-adv-x="781" 
d="M25 275v137h118v256h220q82 0 152.5 -16.5t122.5 -55.5t82 -103t30 -159q0 -96 -30 -160t-82 -102.5t-122.5 -55t-152.5 -16.5h-220v275h-118zM301 275v-142h65q43 0 83 6.5t70.5 28t49 61t18.5 105.5t-18.5 106t-49 61.5t-70.5 28.5t-83 7h-65v-125h77v-137h-77z" />
    <glyph glyph-name="dcroat" unicode="&#x111;" horiz-adv-x="593" 
d="M243 510q41 0 84 -20t67 -62v127h-151v78h151v65h152v-65h66v-78h-66v-361q0 -38 3 -88.5t14 -105.5h-145l-20 67q-32 -43 -73 -61t-82 -18q-48 0 -88 18.5t-69.5 53t-45.5 83t-16 109.5t16 109t45.5 81t69.5 50.5t88 17.5zM292 106q44 0 76.5 33t32.5 110
q0 76 -32 109.5t-77 33.5t-77.5 -35.5t-32.5 -104.5t32.5 -107.5t77.5 -38.5z" />
    <glyph glyph-name="Emacron" unicode="&#x112;" horiz-adv-x="580" 
d="M44 668h514v-139h-356v-116h217v-139h-217v-135h356v-139h-514v668zM151 747v98h299v-98h-299z" />
    <glyph glyph-name="emacron" unicode="&#x113;" horiz-adv-x="566" 
d="M24 251q0 59 21 107t57.5 82t85 52t102.5 18q61 0 110 -22.5t82 -62t49.5 -94.5t12.5 -121h-367q4 -53 38.5 -78.5t76.5 -25.5q35 0 60.5 10t39.5 27l121 -44q-39 -57 -97.5 -84t-119.5 -27q-60 0 -110 18t-86 52t-56 83t-20 110zM177 300h226q-2 48 -33 72.5t-76 24.5
q-43 0 -76.5 -23t-40.5 -74zM140 570v98h299v-98h-299z" />
    <glyph glyph-name="Edotaccent" unicode="&#x116;" horiz-adv-x="580" 
d="M44 668h514v-139h-356v-116h217v-139h-217v-135h356v-139h-514v668zM231 796q0 29 21 50t50 21t49.5 -21t20.5 -50t-20.5 -49.5t-49.5 -20.5t-50 20.5t-21 49.5z" />
    <glyph glyph-name="edotaccent" unicode="&#x117;" horiz-adv-x="566" 
d="M24 251q0 59 21 107t57.5 82t85 52t102.5 18q61 0 110 -22.5t82 -62t49.5 -94.5t12.5 -121h-367q4 -53 38.5 -78.5t76.5 -25.5q35 0 60.5 10t39.5 27l121 -44q-39 -57 -97.5 -84t-119.5 -27q-60 0 -110 18t-86 52t-56 83t-20 110zM177 300h226q-2 48 -33 72.5t-76 24.5
q-43 0 -76.5 -23t-40.5 -74zM219 654q0 29 21 50t50 21t49.5 -21t20.5 -50t-20.5 -49.5t-49.5 -20.5t-50 20.5t-21 49.5z" />
    <glyph glyph-name="Eogonek" unicode="&#x118;" horiz-adv-x="580" 
d="M44 668h514v-139h-356v-116h217v-139h-217v-135h356v-139h-514v668zM380 0h141q-15 -2 -31.5 -8t-30.5 -15t-23.5 -20.5t-9.5 -24.5q0 -18 14.5 -24t31.5 -6q15 0 29 3.5t20 5.5v-75q-11 -4 -35.5 -7t-43.5 -3q-40 0 -67.5 8.5t-44 21.5t-23.5 29t-7 30q0 35 25.5 55.5
t54.5 29.5z" />
    <glyph glyph-name="eogonek" unicode="&#x119;" horiz-adv-x="566" 
d="M290 510q61 0 110 -22.5t82 -62t49.5 -94.5t12.5 -121h-367q4 -53 38.5 -78.5t76.5 -25.5q35 0 60.5 10t39.5 27l121 -44q-22 -32 -51 -54.5t-62 -36.5q-34 -17 -61 -35.5t-27 -40.5q0 -18 14.5 -24t31.5 -6q15 0 29 3.5t20 5.5v-75q-11 -4 -35.5 -7t-43.5 -3
q-40 0 -67.5 8.5t-44 21.5t-23.5 29t-7 30q0 28 17.5 47t40.5 30q-100 14 -160 81.5t-60 177.5q0 59 21 107t57.5 82t85 52t102.5 18zM177 300h226q-2 48 -33 72.5t-76 24.5q-43 0 -76.5 -23t-40.5 -74z" />
    <glyph glyph-name="Ecaron" unicode="&#x11a;" horiz-adv-x="580" 
d="M44 668h514v-139h-356v-116h217v-139h-217v-135h356v-139h-514v668zM105 877h129l68 -61l68 61h128l-146 -133q-22 -19 -50 -19q-29 0 -50 19z" />
    <glyph glyph-name="ecaron" unicode="&#x11b;" horiz-adv-x="566" 
d="M24 251q0 59 21 107t57.5 82t85 52t102.5 18q61 0 110 -22.5t82 -62t49.5 -94.5t12.5 -121h-367q4 -53 38.5 -78.5t76.5 -25.5q35 0 60.5 10t39.5 27l121 -44q-39 -57 -97.5 -84t-119.5 -27q-60 0 -110 18t-86 52t-56 83t-20 110zM177 300h226q-2 48 -33 72.5t-76 24.5
q-43 0 -76.5 -23t-40.5 -74zM93 720h129l68 -61l68 61h128l-146 -133q-22 -19 -50 -19q-29 0 -50 19z" />
    <glyph glyph-name="Gbreve" unicode="&#x11e;" horiz-adv-x="719" 
d="M375 680q88 0 158.5 -34.5t110.5 -103.5l-136 -56q-17 26 -50 45t-85 19q-36 0 -67 -13.5t-54 -40.5t-36.5 -67t-13.5 -93q0 -106 48 -162t126 -56q27 0 54 5.5t48 19t34 35t13 53.5v19h-150v128h308v-378h-104l-22 74q-64 -86 -205 -86q-73 0 -132 24.5t-100 69.5
t-63 109.5t-22 144.5q0 79 24.5 142.5t69.5 108.5t107.5 69t138.5 24zM317 851q4 -16 19.5 -29.5t38.5 -13.5t39 13.5t20 29.5h85q-9 -51 -49.5 -85.5t-94.5 -34.5q-27 0 -51 9t-43 25.5t-31.5 38.5t-17.5 47h85z" />
    <glyph glyph-name="gbreve" unicode="&#x11f;" horiz-adv-x="597" 
d="M395 428l20 68h131v-459q0 -125 -68.5 -182.5t-184.5 -57.5q-31 0 -62.5 5.5t-61 19t-54.5 36.5t-42 57l124 45q14 -27 40 -37t52 -10q46 0 76 21.5t30 72.5v89q-32 -40 -73.5 -59t-83.5 -19q-40 0 -78.5 16.5t-68.5 47.5t-48.5 75.5t-18.5 101.5q0 65 18 112.5
t47.5 78.5t67 46t76.5 15q48 0 90.5 -21t71.5 -62zM292 136q22 0 42 6t35 21t23.5 39.5t8.5 60.5t-8.5 61t-23.5 40t-35 21.5t-42 6.5q-45 0 -77.5 -29.5t-32.5 -95.5t32.5 -98.5t77.5 -32.5zM239 689q4 -16 19.5 -29.5t38.5 -13.5t39 13.5t20 29.5h85q-9 -51 -49.5 -85.5
t-94.5 -34.5q-27 0 -51 9t-43 25.5t-31.5 38.5t-17.5 47h85z" />
    <glyph glyph-name="Gdotaccent" unicode="&#x120;" horiz-adv-x="719" 
d="M375 680q88 0 158.5 -34.5t110.5 -103.5l-136 -56q-17 26 -50 45t-85 19q-36 0 -67 -13.5t-54 -40.5t-36.5 -67t-13.5 -93q0 -106 48 -162t126 -56q27 0 54 5.5t48 19t34 35t13 53.5v19h-150v128h308v-378h-104l-22 74q-64 -86 -205 -86q-73 0 -132 24.5t-100 69.5
t-63 109.5t-22 144.5q0 79 24.5 142.5t69.5 108.5t107.5 69t138.5 24zM305 796q0 29 21 50t50 21t49.5 -21t20.5 -50t-20.5 -49.5t-49.5 -20.5t-50 20.5t-21 49.5z" />
    <glyph glyph-name="gdotaccent" unicode="&#x121;" horiz-adv-x="597" 
d="M395 428l20 68h131v-459q0 -125 -68.5 -182.5t-184.5 -57.5q-31 0 -62.5 5.5t-61 19t-54.5 36.5t-42 57l124 45q14 -27 40 -37t52 -10q46 0 76 21.5t30 72.5v89q-32 -40 -73.5 -59t-83.5 -19q-40 0 -78.5 16.5t-68.5 47.5t-48.5 75.5t-18.5 101.5q0 65 18 112.5
t47.5 78.5t67 46t76.5 15q48 0 90.5 -21t71.5 -62zM292 136q22 0 42 6t35 21t23.5 39.5t8.5 60.5t-8.5 61t-23.5 40t-35 21.5t-42 6.5q-45 0 -77.5 -29.5t-32.5 -95.5t32.5 -98.5t77.5 -32.5zM232 648q0 29 21 50t50 21t49.5 -21t20.5 -50t-20.5 -49.5t-49.5 -20.5t-50 20.5
t-21 49.5z" />
    <glyph glyph-name="uni0122" unicode="&#x122;" horiz-adv-x="719" 
d="M375 680q88 0 158.5 -34.5t110.5 -103.5l-136 -56q-17 26 -50 45t-85 19q-36 0 -67 -13.5t-54 -40.5t-36.5 -67t-13.5 -93q0 -106 48 -162t126 -56q27 0 54 5.5t48 19t34 35t13 53.5v19h-150v128h308v-378h-104l-22 74q-64 -86 -205 -86q-73 0 -132 24.5t-100 69.5
t-63 109.5t-22 144.5q0 79 24.5 142.5t69.5 108.5t107.5 69t138.5 24zM248 -206q48 0 75 16t27 45q0 21 -19.5 37t-48.5 23l102 40q47 -19 65.5 -44t18.5 -52q0 -47 -43.5 -78.5t-124.5 -31.5z" />
    <glyph glyph-name="uni0123" unicode="&#x123;" horiz-adv-x="597" 
d="M395 428l20 68h131v-459q0 -125 -68.5 -182.5t-184.5 -57.5q-31 0 -62.5 5.5t-61 19t-54.5 36.5t-42 57l124 45q14 -27 40 -37t52 -10q46 0 76 21.5t30 72.5v89q-32 -40 -73.5 -59t-83.5 -19q-40 0 -78.5 16.5t-68.5 47.5t-48.5 75.5t-18.5 101.5q0 65 18 112.5
t47.5 78.5t67 46t76.5 15q48 0 90.5 -21t71.5 -62zM292 136q22 0 42 6t35 21t23.5 39.5t8.5 60.5t-8.5 61t-23.5 40t-35 21.5t-42 6.5q-45 0 -77.5 -29.5t-32.5 -95.5t32.5 -98.5t77.5 -32.5zM410.002 728.987q-47.998 0 -74.9961 -15.999t-26.998 -44.9971
q0 -20.999 19.499 -36.998q19.498 -15.999 48.4971 -22.998l-101.994 -39.998q-46.9971 18.999 -65.4961 43.9971q-18.499 24.999 -18.499 51.9971q0 46.9971 43.498 78.4951q43.4971 31.498 124.492 31.498z" />
    <glyph glyph-name="Hbar" unicode="&#x126;" horiz-adv-x="740" 
d="M75 594v74h158v-74h275v74h158v-74h59v-98h-59v-496h-158v274h-275v-274h-158v496h-60v98h60zM233 496v-83h275v83h-275z" />
    <glyph glyph-name="hbar" unicode="&#x127;" horiz-adv-x="590" 
d="M220 555v-125q17 28 56.5 54t96.5 26q96 0 131.5 -53.5t35.5 -154.5v-302h-152v264q0 26 -1.5 49.5t-9 41t-23 27.5t-42.5 10q-48 0 -70 -34.5t-22 -102.5v-255h-152v555h-94v78h94v65h152v-65h123v-78h-123z" />
    <glyph glyph-name="Imacron" unicode="&#x12a;" horiz-adv-x="458" 
d="M151 124v420h-94v124h344v-124h-92v-420h92v-124h-344v124h94zM79 747v98h299v-98h-299z" />
    <glyph glyph-name="imacron" unicode="&#x12b;" horiz-adv-x="301" 
d="M271 496v-496h-153v381h-94v115h247zM26 570v98h299v-98h-299z" />
    <glyph glyph-name="Iogonek" unicode="&#x12e;" horiz-adv-x="458" 
d="M151 124v420h-94v124h344v-124h-92v-420h92v-124h-344v124h94zM166 0h141q-15 -2 -31.5 -8t-30.5 -15t-23.5 -20.5t-9.5 -24.5q0 -18 14.5 -24t31.5 -6q15 0 29 3.5t20 5.5v-75q-11 -4 -35.5 -7t-43.5 -3q-40 0 -67.5 8.5t-44 21.5t-23.5 29t-7 30q0 35 25.5 55.5
t54.5 29.5z" />
    <glyph glyph-name="iogonek" unicode="&#x12f;" horiz-adv-x="315" 
d="M24 496h247v-496h-153v380h-94v116zM105 668q0 38 26 64t64 26t64 -26t26 -64q0 -37 -26 -63.5t-64 -26.5t-64 26.5t-26 63.5zM120 0h141q-17 -9 -34 -17t-30.5 -16.5t-22 -17t-8.5 -17.5q0 -18 14.5 -24t31.5 -6q15 0 29 3.5t20 5.5v-75q-11 -4 -35.5 -7t-43.5 -3
q-40 0 -67.5 8.5t-44 21.5t-23.5 29t-7 30q0 35 25.5 55.5t54.5 29.5z" />
    <glyph glyph-name="dotlessi" unicode="&#x131;" horiz-adv-x="301" 
d="M271 496v-496h-153v381h-94v115h247z" />
    <glyph glyph-name="uni0136" unicode="&#x136;" horiz-adv-x="659" 
d="M44 0v668h158v-265l241 265h193l-264 -286l277 -382h-183l-196 272l-68 -75v-197h-158zM178 -206q48 0 75 16t27 45q0 21 -19.5 37t-48.5 23l102 40q47 -19 65.5 -44t18.5 -52q0 -47 -43.5 -78.5t-124.5 -31.5z" />
    <glyph glyph-name="uni0137" unicode="&#x137;" horiz-adv-x="567" 
d="M50 0v668h152v-360l166 188h180l-194 -207l209 -289h-180l-129 180l-52 -55v-125h-152zM152 -206q48 0 75 16t27 45q0 21 -19.5 37t-48.5 23l102 40q47 -19 65.5 -44t18.5 -52q0 -47 -43.5 -78.5t-124.5 -31.5z" />
    <glyph glyph-name="uni013B" unicode="&#x13b;" horiz-adv-x="537" 
d="M522 139v-139h-478v668h158v-529h320zM190 -207q48 0 75 16t27 45q0 21 -19.5 37t-48.5 23l102 40q47 -19 65.5 -44t18.5 -52q0 -47 -43.5 -78.5t-124.5 -31.5z" />
    <glyph glyph-name="uni013C" unicode="&#x13c;" horiz-adv-x="314" 
d="M202 668v-488q0 -35 14 -45.5t52 -10.5h43v-124h-97q-46 0 -77 5.5t-50.5 20.5t-28 42.5t-8.5 71.5v528h152zM21 -206q48 0 75 16t27 45q0 21 -19.5 37t-48.5 23l102 40q47 -19 65.5 -44t18.5 -52q0 -47 -43.5 -78.5t-124.5 -31.5z" />
    <glyph glyph-name="Lcaron" unicode="&#x13d;" horiz-adv-x="537" 
d="M522 139v-139h-478v668h158v-529h320zM258 648q4 23 21.5 35t34.5 12q26 0 40.5 -18.5t14.5 -38.5q0 -9 -3 -17l-52 -118h-80z" />
    <glyph glyph-name="lcaron" unicode="&#x13e;" horiz-adv-x="314" 
d="M202 668v-488q0 -35 14 -45.5t52 -10.5h43v-124h-97q-46 0 -77 5.5t-50.5 20.5t-28 42.5t-8.5 71.5v528h152zM257 642q4 23 21.5 35t34.5 12q26 0 40.5 -18.5t14.5 -38.5q0 -9 -3 -17l-52 -118h-80z" />
    <glyph glyph-name="Lslash" unicode="&#x141;" horiz-adv-x="586" 
d="M13 178v122l80 47v321h158v-227l160 97v-122l-160 -95v-182h320v-139h-478v226z" />
    <glyph glyph-name="lslash" unicode="&#x142;" horiz-adv-x="322" 
d="M5 195v122l54 32v319h153v-228l107 65v-122l-107 -64v-140q0 -35 13.5 -45t51.5 -10h42v-124h-95q-46 0 -77.5 5.5t-51 20.5t-28 42.5t-8.5 70.5v89z" />
    <glyph glyph-name="Nacute" unicode="&#x143;" horiz-adv-x="700" 
d="M196 476v-476h-152v668h201l258 -476v476h153v-668h-202zM312 731q33 37 60 67q11 13 21.5 24.5t18.5 21.5q10 11 19 21l5 5q15 15 38 15t39.5 -16.5t16.5 -39.5q0 -24 -19 -43l-74 -55h-125z" />
    <glyph glyph-name="nacute" unicode="&#x144;" horiz-adv-x="572" 
d="M50 0v496h133l19 -66q17 28 56.5 54t96.5 26q96 0 131.5 -53.5t35.5 -154.5v-302h-152v264q0 26 -1.5 49.5t-9 41t-23 27.5t-42.5 10q-48 0 -70 -34.5t-22 -102.5v-255h-152zM343 709q3 4 13 11t28 7q24 0 40 -16t16 -40q0 -26 -19 -42l-75 -55h-114z" />
    <glyph glyph-name="uni0145" unicode="&#x145;" horiz-adv-x="700" 
d="M196 476v-476h-152v668h201l258 -476v476h153v-668h-202zM211 -206q48 0 75 16t27 45q0 21 -19.5 37t-48.5 23l102 40q47 -19 65.5 -44t18.5 -52q0 -47 -43.5 -78.5t-124.5 -31.5z" />
    <glyph glyph-name="uni0146" unicode="&#x146;" horiz-adv-x="572" 
d="M50 0v496h133l19 -66q17 28 56.5 54t96.5 26q96 0 131.5 -53.5t35.5 -154.5v-302h-152v264q0 26 -1.5 49.5t-9 41t-23 27.5t-42.5 10q-48 0 -70 -34.5t-22 -102.5v-255h-152zM154 -206q48 0 75 16t27 45q0 21 -19.5 37t-48.5 23l102 40q47 -19 65.5 -44t18.5 -52
q0 -47 -43.5 -78.5t-124.5 -31.5z" />
    <glyph glyph-name="Ncaron" unicode="&#x147;" horiz-adv-x="700" 
d="M196 476v-476h-152v668h201l258 -476v476h153v-668h-202zM154 877h129l68 -61l68 61h128l-146 -133q-22 -19 -50 -19q-29 0 -50 19z" />
    <glyph glyph-name="ncaron" unicode="&#x148;" horiz-adv-x="572" 
d="M50 0v496h133l19 -66q17 28 56.5 54t96.5 26q96 0 131.5 -53.5t35.5 -154.5v-302h-152v264q0 26 -1.5 49.5t-9 41t-23 27.5t-42.5 10q-48 0 -70 -34.5t-22 -102.5v-255h-152zM90 720h129l68 -61l68 61h128l-146 -133q-22 -19 -50 -19q-29 0 -50 19z" />
    <glyph glyph-name="Ohungarumlaut" unicode="&#x150;" horiz-adv-x="764" 
d="M35 334q0 78 25 142t71 109t109.5 70t140.5 25t141 -25t110 -70t71.5 -109t25.5 -142t-25.5 -142t-71.5 -109t-110 -70t-141 -25t-140.5 25t-109.5 70t-71 109t-25 142zM202 334q0 -53 14.5 -93.5t39 -67.5t57 -41t68.5 -14q37 0 69.5 14t57 41t39 67.5t14.5 93.5
t-14.5 93.5t-39 67.5t-57 41t-69.5 14q-36 0 -68.5 -14t-57 -41t-39 -67.5t-14.5 -93.5zM209 745l109 133q2 1 11.5 10.5t31.5 9.5q24 0 40 -16t16 -40q0 -26 -19 -42l-75 -55h-114zM411 745l109 133q2 1 11.5 10.5t31.5 9.5q24 0 40 -16t16 -40q0 -26 -19 -42l-75 -55h-114
z" />
    <glyph glyph-name="ohungarumlaut" unicode="&#x151;" 
d="M24 250q0 67 21.5 116t58 81t84 47.5t99.5 15.5q51 0 98.5 -15.5t83.5 -47.5t58 -81t22 -116t-22 -116.5t-58 -81.5t-83.5 -48t-98.5 -16q-52 0 -99.5 16t-84 48t-58 81.5t-21.5 116.5zM287 106q46 0 76.5 33t30.5 111q0 79 -31.5 110.5t-75.5 31.5q-45 0 -76.5 -31.5
t-31.5 -110.5q0 -78 30.5 -111t77.5 -33zM121 574l109 133q2 1 11.5 10.5t31.5 9.5q24 0 40 -16t16 -40q0 -26 -19 -42l-75 -55h-114zM323 574l109 133q2 1 11.5 10.5t31.5 9.5q24 0 40 -16t16 -40q0 -26 -19 -42l-75 -55h-114z" />
    <glyph glyph-name="OE" unicode="&#x152;" horiz-adv-x="1061" 
d="M381 680q102 0 180 -43v31h478v-140h-356v-115h218v-138h-218v-136h356v-139h-478v31q-78 -43 -180 -43q-77 0 -140.5 24.5t-109.5 70t-71 109.5t-25 142t25 142t71 109t109.5 70t140.5 25zM381 118q37 0 69.5 14t57 41t39 67.5t14.5 93.5t-14.5 93.5t-39 67.5t-57 40.5
t-69.5 13.5q-36 0 -68.5 -13.5t-57 -40.5t-39 -67.5t-14.5 -93.5t14.5 -93.5t39 -67.5t57 -41t68.5 -14z" />
    <glyph glyph-name="oe" unicode="&#x153;" horiz-adv-x="937" 
d="M287 510q53 0 102 -17t86 -52q36 33 83.5 51t101.5 18q62 0 110.5 -22.5t82 -62.5t50 -95t12.5 -121h-368q4 -53 38 -78t76 -25q37 0 62 10t40 27l121 -44q-39 -58 -97.5 -84.5t-120.5 -26.5q-121 0 -193 67q-37 -35 -85.5 -51t-100.5 -16t-99.5 15.5t-84 48t-58 82
t-21.5 116.5t21.5 116t58 81t84 47.5t99.5 15.5zM287 106q46 0 76.5 33t30.5 111t-31 110t-76 32t-76.5 -32t-31.5 -110t30.5 -111t77.5 -33zM547 299h226q-1 48 -32.5 72.5t-76.5 24.5q-43 0 -76.5 -23t-40.5 -74z" />
    <glyph glyph-name="Racute" unicode="&#x154;" horiz-adv-x="654" 
d="M301 668q65 0 120.5 -9t96 -32t63.5 -63.5t23 -102.5q0 -28 -7.5 -57t-25.5 -54.5t-49 -46.5t-79 -34l194 -269h-183l-181 252h-71v-252h-158v668h257zM202 384h104q56 0 93.5 14.5t37.5 60.5q0 23 -10 38t-27.5 23.5t-41.5 11.5t-52 3h-104v-151zM262 731q33 37 60 67
q11 13 21.5 24.5t18.5 21.5q10 11 19 21l5 5q15 15 38 15t39.5 -16.5t16.5 -39.5q0 -24 -19 -43l-74 -55h-125z" />
    <glyph glyph-name="racute" unicode="&#x155;" horiz-adv-x="372" 
d="M170 496l27 -91q23 60 63 84t97 21v-152q-12 2 -21 2.5t-20 0.5q-56 0 -85 -25.5t-29 -85.5v-250h-152v496h120zM267 709q3 4 13 11t28 7q24 0 40 -16t16 -40q0 -26 -19 -42l-75 -55h-114z" />
    <glyph glyph-name="Rcaron" unicode="&#x158;" horiz-adv-x="654" 
d="M301 668q65 0 120.5 -9t96 -32t63.5 -63.5t23 -102.5q0 -28 -7.5 -57t-25.5 -54.5t-49 -46.5t-79 -34l194 -269h-183l-181 252h-71v-252h-158v668h257zM202 384h104q56 0 93.5 14.5t37.5 60.5q0 23 -10 38t-27.5 23.5t-41.5 11.5t-52 3h-104v-151zM111 877h129l68 -61
l68 61h128l-146 -133q-22 -19 -50 -19q-29 0 -50 19z" />
    <glyph glyph-name="rcaron" unicode="&#x159;" horiz-adv-x="372" 
d="M170 496l27 -91q23 60 63 84t97 21v-152q-12 2 -21 2.5t-20 0.5q-56 0 -85 -25.5t-29 -85.5v-250h-152v496h120zM24 720h129l68 -61l68 61h128l-146 -133q-22 -19 -50 -19q-29 0 -50 19z" />
    <glyph glyph-name="Sacute" unicode="&#x15a;" horiz-adv-x="619" 
d="M169 209q14 -48 52 -71t94 -23q21 0 42.5 3.5t38.5 12t27.5 22t10.5 32.5q0 35 -34 54t-88 30l-81 16q-41 8 -78 22.5t-64.5 37t-44 54t-16.5 74.5q0 54 25.5 93t66 64.5t91 37.5t100.5 12q41 0 80 -8t73 -25.5t60.5 -45t42.5 -66.5l-143 -52q-14 34 -46.5 52t-80.5 18
q-46 0 -76.5 -16.5t-30.5 -47.5q0 -26 20.5 -43.5t55.5 -24.5l90 -18q41 -8 83.5 -20t77 -33.5t57 -55t22.5 -85.5q0 -53 -24.5 -94.5t-64.5 -69.5t-90.5 -42.5t-102.5 -14.5q-110 0 -184 44t-105 125zM254 731q33 37 60 67q11 13 21.5 24.5t18.5 21.5q10 11 19 21l5 5
q15 15 38 15t39.5 -16.5t16.5 -39.5q0 -24 -19 -43l-74 -55h-125z" />
    <glyph glyph-name="sacute" unicode="&#x15b;" horiz-adv-x="534" 
d="M150 161q11 -32 42.5 -47t74.5 -15q37 0 65.5 11.5t28.5 34.5q0 16 -17 26.5t-60 18.5l-89 15q-72 12 -117 48.5t-45 99.5q0 39 18.5 68.5t49.5 49t72.5 29.5t87.5 10q72 0 132 -25.5t88 -84.5l-128 -47q-8 27 -33.5 36.5t-59.5 9.5q-82 0 -82 -40q0 -15 14 -24.5
t47 -15.5l92 -17q91 -17 133.5 -47t42.5 -93q0 -44 -19.5 -76.5t-52.5 -54.5t-77 -32.5t-94 -10.5q-88 0 -151 31.5t-92 94.5zM322 709q3 4 13 11t28 7q24 0 40 -16t16 -40q0 -26 -19 -42l-75 -55h-114z" />
    <glyph glyph-name="Scedilla" unicode="&#x15e;" horiz-adv-x="619" 
d="M169 209q14 -48 52 -71t94 -23q21 0 42.5 3.5t38.5 12t27.5 22t10.5 32.5q0 35 -34 54t-88 30l-81 16q-41 8 -78 22.5t-64.5 37t-44 54t-16.5 74.5q0 54 25.5 93t66 64.5t91 37.5t100.5 12q41 0 80 -8t73 -25.5t60.5 -45t42.5 -66.5l-143 -52q-14 34 -46.5 52t-80.5 18
q-46 0 -76.5 -16.5t-30.5 -47.5q0 -26 20.5 -43.5t55.5 -24.5l90 -18q41 -8 83.5 -20t77 -33.5t57 -55t22.5 -85.5q0 -53 -24.5 -94.5t-64.5 -69.5t-90.5 -42.5t-102.5 -14.5q-110 0 -184 44t-105 125zM221 -174l16 50q8 -5 25.5 -9t35.5 -4t31 6t13 21q0 12 -10 19t-27 7
q-12 0 -27 -5q-9 -3 -17 2t-10.5 12.5t2.5 15.5l52 84l41 -25l-30 -48q14 3 34 3q14 0 29.5 -3t28 -10.5t20.5 -19.5t8 -29q0 -22 -11 -37t-28.5 -24.5t-40.5 -14t-47 -4.5t-46.5 3.5t-41.5 9.5z" />
    <glyph glyph-name="scedilla" unicode="&#x15f;" horiz-adv-x="534" 
d="M150 161q11 -32 42.5 -47t74.5 -15q37 0 65.5 11.5t28.5 34.5q0 16 -17 26.5t-60 18.5l-89 15q-72 12 -117 48.5t-45 99.5q0 39 18.5 68.5t49.5 49t72.5 29.5t87.5 10q72 0 132 -25.5t88 -84.5l-128 -47q-8 27 -33.5 36.5t-59.5 9.5q-82 0 -82 -40q0 -15 14 -24.5
t47 -15.5l92 -17q91 -17 133.5 -47t42.5 -93q0 -44 -19.5 -76.5t-52.5 -54.5t-77 -32.5t-94 -10.5q-88 0 -151 31.5t-92 94.5zM173 -174l16 50q8 -5 25.5 -9t35.5 -4t31 6t13 21q0 12 -10 19t-27 7q-12 0 -27 -5q-9 -3 -17 2t-10.5 12.5t2.5 15.5l52 84l41 -25l-30 -48
q14 3 34 3q14 0 29.5 -3t28 -10.5t20.5 -19.5t8 -29q0 -22 -11 -37t-28.5 -24.5t-40.5 -14t-47 -4.5t-46.5 3.5t-41.5 9.5z" />
    <glyph glyph-name="Scaron" unicode="&#x160;" horiz-adv-x="619" 
d="M169 209q14 -48 52 -71t94 -23q21 0 42.5 3.5t38.5 12t27.5 22t10.5 32.5q0 35 -34 54t-88 30l-81 16q-41 8 -78 22.5t-64.5 37t-44 54t-16.5 74.5q0 54 25.5 93t66 64.5t91 37.5t100.5 12q41 0 80 -8t73 -25.5t60.5 -45t42.5 -66.5l-143 -52q-14 34 -46.5 52t-80.5 18
q-46 0 -76.5 -16.5t-30.5 -47.5q0 -26 20.5 -43.5t55.5 -24.5l90 -18q41 -8 83.5 -20t77 -33.5t57 -55t22.5 -85.5q0 -53 -24.5 -94.5t-64.5 -69.5t-90.5 -42.5t-102.5 -14.5q-110 0 -184 44t-105 125zM115 877h129l68 -61l68 61h128l-146 -133q-22 -19 -50 -19
q-29 0 -50 19z" />
    <glyph glyph-name="scaron" unicode="&#x161;" horiz-adv-x="534" 
d="M150 161q11 -32 42.5 -47t74.5 -15q37 0 65.5 11.5t28.5 34.5q0 16 -17 26.5t-60 18.5l-89 15q-72 12 -117 48.5t-45 99.5q0 39 18.5 68.5t49.5 49t72.5 29.5t87.5 10q72 0 132 -25.5t88 -84.5l-128 -47q-8 27 -33.5 36.5t-59.5 9.5q-82 0 -82 -40q0 -15 14 -24.5
t47 -15.5l92 -17q91 -17 133.5 -47t42.5 -93q0 -44 -19.5 -76.5t-52.5 -54.5t-77 -32.5t-94 -10.5q-88 0 -151 31.5t-92 94.5zM66 720h129l68 -61l68 61h128l-146 -133q-22 -19 -50 -19q-29 0 -50 19z" />
    <glyph glyph-name="uni0162" unicode="&#x162;" horiz-adv-x="617" 
d="M15 668h587v-139h-215v-529h-157v529h-215v139zM189 -206q48 0 75 16t27 45q0 21 -19.5 37t-48.5 23l102 40q47 -19 65.5 -44t18.5 -52q0 -47 -43.5 -78.5t-124.5 -31.5z" />
    <glyph glyph-name="uni0163" unicode="&#x163;" horiz-adv-x="379" 
d="M13 496h82v124h152v-124h108v-116h-108v-200q0 -35 13.5 -45.5t50.5 -10.5h44v-124h-96q-46 0 -77 5.5t-50.5 20.5t-28 42.5t-8.5 71.5v240h-82v116zM74 -206q48 0 75 16t27 45q0 21 -19.5 37t-48.5 23l102 40q47 -19 65.5 -44t18.5 -52q0 -47 -43.5 -78.5t-124.5 -31.5z
" />
    <glyph glyph-name="Tcaron" unicode="&#x164;" horiz-adv-x="617" 
d="M15 668h587v-139h-215v-529h-157v529h-215v139zM112 877h129l68 -61l68 61h128l-146 -133q-22 -19 -50 -19q-29 0 -50 19z" />
    <glyph glyph-name="tcaron" unicode="&#x165;" horiz-adv-x="379" 
d="M13 496h82v124h152v-124h108v-116h-108v-200q0 -35 13.5 -45.5t50.5 -10.5h44v-124h-96q-46 0 -77 5.5t-50.5 20.5t-28 42.5t-8.5 71.5v240h-82v116zM318 698q4 23 21.5 35t34.5 12q26 0 40.5 -18.5t14.5 -38.5q0 -9 -3 -17l-52 -118h-80z" />
    <glyph glyph-name="Umacron" unicode="&#x16a;" horiz-adv-x="657" 
d="M41 292v376h158v-389q0 -37 4.5 -67t18.5 -51t39.5 -32.5t67.5 -11.5q41 0 66.5 11.5t39.5 32.5t18.5 51t4.5 67v389h158v-376q0 -154 -66 -229t-221 -75q-78 0 -133 18.5t-89.5 56t-50 95t-15.5 134.5zM179 747v98h299v-98h-299z" />
    <glyph glyph-name="umacron" unicode="&#x16b;" horiz-adv-x="570" 
d="M50 496h152v-260q0 -27 1.5 -50.5t9 -41t22.5 -28t43 -10.5q48 0 68 30t20 99v261h153v-496h-132l-21 70q-22 -37 -54.5 -59.5t-89.5 -22.5q-49 0 -82.5 14t-53 40.5t-28 65.5t-8.5 90v298zM136 570v98h299v-98h-299z" />
    <glyph glyph-name="Uring" unicode="&#x16e;" horiz-adv-x="657" 
d="M41 292v376h158v-389q0 -37 4.5 -67t18.5 -51t39.5 -32.5t67.5 -11.5q41 0 66.5 11.5t39.5 32.5t18.5 51t4.5 67v389h158v-376q0 -154 -66 -229t-221 -75q-78 0 -133 18.5t-89.5 56t-50 95t-15.5 134.5zM328 911q27 0 51.5 -10.5t42.5 -28.5t28.5 -42t10.5 -51
t-10.5 -51.5t-28.5 -42.5t-42.5 -28.5t-51.5 -10.5t-51 10.5t-42 28.5t-28.5 42.5t-10.5 51.5t10.5 51t28.5 42t42 28.5t51 10.5zM281 779q0 -20 13.5 -33.5t33.5 -13.5t33.5 13.5t13.5 33.5t-13.5 33.5t-33.5 13.5t-33.5 -13.5t-13.5 -33.5z" />
    <glyph glyph-name="uring" unicode="&#x16f;" horiz-adv-x="570" 
d="M50 496h152v-260q0 -27 1.5 -50.5t9 -41t22.5 -28t43 -10.5q48 0 68 30t20 99v261h153v-496h-132l-21 70q-22 -37 -54.5 -59.5t-89.5 -22.5q-49 0 -82.5 14t-53 40.5t-28 65.5t-8.5 90v298zM285 800q27 0 51.5 -10.5t42.5 -28.5t28.5 -42t10.5 -51t-10.5 -51.5
t-28.5 -42.5t-42.5 -28.5t-51.5 -10.5t-51 10.5t-42 28.5t-28.5 42.5t-10.5 51.5t10.5 51t28.5 42t42 28.5t51 10.5zM238 668q0 -20 13.5 -33.5t33.5 -13.5t33.5 13.5t13.5 33.5t-13.5 33.5t-33.5 13.5t-33.5 -13.5t-13.5 -33.5z" />
    <glyph glyph-name="Uhungarumlaut" unicode="&#x170;" horiz-adv-x="657" 
d="M41 292v376h158v-389q0 -37 4.5 -67t18.5 -51t39.5 -32.5t67.5 -11.5q41 0 66.5 11.5t39.5 32.5t18.5 51t4.5 67v389h158v-376q0 -154 -66 -229t-221 -75q-78 0 -133 18.5t-89.5 56t-50 95t-15.5 134.5zM156 746l109 133q2 1 11.5 10.5t31.5 9.5q24 0 40 -16t16 -40
q0 -26 -19 -42l-75 -55h-114zM358 746l109 133q2 1 11.5 10.5t31.5 9.5q24 0 40 -16t16 -40q0 -26 -19 -42l-75 -55h-114z" />
    <glyph glyph-name="uhungarumlaut" unicode="&#x171;" horiz-adv-x="570" 
d="M50 496h152v-260q0 -27 1.5 -50.5t9 -41t22.5 -28t43 -10.5q48 0 68 30t20 99v261h153v-496h-132l-21 70q-22 -37 -54.5 -59.5t-89.5 -22.5q-49 0 -82.5 14t-53 40.5t-28 65.5t-8.5 90v298zM120 574l109 133q2 1 11.5 10.5t31.5 9.5q24 0 40 -16t16 -40q0 -26 -19 -42
l-75 -55h-114zM322 574l109 133q2 1 11.5 10.5t31.5 9.5q24 0 40 -16t16 -40q0 -26 -19 -42l-75 -55h-114z" />
    <glyph glyph-name="Uogonek" unicode="&#x172;" horiz-adv-x="657" 
d="M41 292v376h158v-389q0 -37 4.5 -67t18.5 -51t39.5 -32.5t67.5 -11.5q41 0 66.5 11.5t39.5 32.5t18.5 51t4.5 67v389h158v-376q0 -154 -66 -229t-221 -75q-78 0 -133 18.5t-89.5 56t-50 95t-15.5 134.5zM295 0h141q-15 -2 -31.5 -8t-30.5 -15t-23.5 -20.5t-9.5 -24.5
q0 -18 14.5 -24t31.5 -6q15 0 29 3.5t20 5.5v-75q-11 -4 -35.5 -7t-43.5 -3q-40 0 -67.5 8.5t-44 21.5t-23.5 29t-7 30q0 35 25.5 55.5t54.5 29.5z" />
    <glyph glyph-name="uogonek" unicode="&#x173;" 
d="M203 496v-260q0 -27 1.5 -50.5t9 -41t22.5 -28t43 -10.5q48 0 68 30t20 99v261h153v-496q-17 -9 -34 -17t-30.5 -16.5t-22 -17t-8.5 -17.5q0 -18 14.5 -24t31.5 -6q15 0 29 3.5t20 5.5v-75q-11 -4 -35.5 -7t-43.5 -3q-40 0 -67.5 8.5t-44 21.5t-23.5 29t-7 30
q0 16 8 30.5t21 25.5t28.5 19t30.5 12l-20 68q-22 -37 -54.5 -59.5t-89.5 -22.5q-49 0 -82.5 14t-53 40.5t-28 65.5t-8.5 90v298h152z" />
    <glyph glyph-name="Ydieresis" unicode="&#x178;" horiz-adv-x="687" 
d="M10 668h184l149 -257l149 257h185l-255 -408v-260h-157v260zM177 796q0 29 21 50t50 21t49.5 -21t20.5 -50t-20.5 -49.5t-49.5 -20.5t-50 20.5t-21 49.5zM371 796q0 29 21 50t50 21t49 -21t20 -50t-20 -49.5t-49 -20.5t-50 20.5t-21 49.5z" />
    <glyph glyph-name="Zacute" unicode="&#x179;" horiz-adv-x="621" 
d="M240 139h349v-139h-557v121l337 408h-322v139h527v-121zM254 731q33 37 60 67q11 13 21.5 24.5t18.5 21.5q10 11 19 21l5 5q15 15 38 15t39.5 -16.5t16.5 -39.5q0 -24 -19 -43l-74 -55h-125z" />
    <glyph glyph-name="zacute" unicode="&#x17a;" horiz-adv-x="516" 
d="M496 121v-121h-466v121l257 254h-243v121h438v-121l-256 -254h270zM322 709q3 4 13 11t28 7q24 0 40 -16t16 -40q0 -26 -19 -42l-75 -55h-114z" />
    <glyph glyph-name="Zdotaccent" unicode="&#x17b;" horiz-adv-x="621" 
d="M240 139h349v-139h-557v121l337 408h-322v139h527v-121zM241 796q0 29 21 50t50 21t49.5 -21t20.5 -50t-20.5 -49.5t-49.5 -20.5t-50 20.5t-21 49.5z" />
    <glyph glyph-name="zdotaccent" unicode="&#x17c;" horiz-adv-x="516" 
d="M496 121v-121h-466v121l257 254h-243v121h438v-121l-256 -254h270zM193 648q0 29 21 50t50 21t49.5 -21t20.5 -50t-20.5 -49.5t-49.5 -20.5t-50 20.5t-21 49.5z" />
    <glyph glyph-name="Zcaron" unicode="&#x17d;" horiz-adv-x="621" 
d="M240 139h349v-139h-557v121l337 408h-322v139h527v-121zM114 877h129l68 -61l68 61h128l-146 -133q-22 -19 -50 -19q-29 0 -50 19z" />
    <glyph glyph-name="zcaron" unicode="&#x17e;" horiz-adv-x="516" 
d="M496 121v-121h-466v121l257 254h-243v121h438v-121l-256 -254h270zM67 720h129l68 -61l68 61h128l-146 -133q-22 -19 -50 -19q-29 0 -50 19z" />
    <glyph glyph-name="florin" unicode="&#x192;" horiz-adv-x="377" 
d="M15 381v115h82v82q0 44 11 73t34.5 46.5t59.5 24.5t86 7h69v-121h-42q-41 0 -53.5 -8t-12.5 -36v-68h108v-115h-108v-397q0 -60 -24 -96.5t-61 -50.5q-13 -5 -31.5 -7t-39.5 -2q-41 0 -78 8v133q17 -3 33.5 -2t26.5 7q14 9 18 23.5t4 41.5v342h-82z" />
    <glyph glyph-name="uni0218" unicode="&#x218;" horiz-adv-x="619" 
d="M169 209q14 -48 52 -71t94 -23q21 0 42.5 3.5t38.5 12t27.5 22t10.5 32.5q0 35 -34 54t-88 30l-81 16q-41 8 -78 22.5t-64.5 37t-44 54t-16.5 74.5q0 54 25.5 93t66 64.5t91 37.5t100.5 12q41 0 80 -8t73 -25.5t60.5 -45t42.5 -66.5l-143 -52q-14 34 -46.5 52t-80.5 18
q-46 0 -76.5 -16.5t-30.5 -47.5q0 -26 20.5 -43.5t55.5 -24.5l90 -18q41 -8 83.5 -20t77 -33.5t57 -55t22.5 -85.5q0 -53 -24.5 -94.5t-64.5 -69.5t-90.5 -42.5t-102.5 -14.5q-110 0 -184 44t-105 125zM191 -206q48 0 75 16t27 45q0 21 -19.5 37t-48.5 23l102 40
q47 -19 65.5 -44t18.5 -52q0 -47 -43.5 -78.5t-124.5 -31.5z" />
    <glyph glyph-name="uni0219" unicode="&#x219;" horiz-adv-x="534" 
d="M150 161q11 -32 42.5 -47t74.5 -15q37 0 65.5 11.5t28.5 34.5q0 16 -17 26.5t-60 18.5l-89 15q-72 12 -117 48.5t-45 99.5q0 39 18.5 68.5t49.5 49t72.5 29.5t87.5 10q72 0 132 -25.5t88 -84.5l-128 -47q-8 27 -33.5 36.5t-59.5 9.5q-82 0 -82 -40q0 -15 14 -24.5
t47 -15.5l92 -17q91 -17 133.5 -47t42.5 -93q0 -44 -19.5 -76.5t-52.5 -54.5t-77 -32.5t-94 -10.5q-88 0 -151 31.5t-92 94.5zM143 -206q48 0 75 16t27 45q0 21 -19.5 37t-48.5 23l102 40q47 -19 65.5 -44t18.5 -52q0 -47 -43.5 -78.5t-124.5 -31.5z" />
    <glyph glyph-name="uni021A" unicode="&#x21a;" horiz-adv-x="617" 
d="M15 668h587v-139h-215v-529h-157v529h-215v139zM189 -206q48 0 75 16t27 45q0 21 -19.5 37t-48.5 23l102 40q47 -19 65.5 -44t18.5 -52q0 -47 -43.5 -78.5t-124.5 -31.5z" />
    <glyph glyph-name="uni021B" unicode="&#x21b;" horiz-adv-x="379" 
d="M13 496h82v124h152v-124h108v-116h-108v-200q0 -35 13.5 -45.5t50.5 -10.5h44v-124h-96q-46 0 -77 5.5t-50.5 20.5t-28 42.5t-8.5 71.5v240h-82v116zM74 -206q48 0 75 16t27 45q0 21 -19.5 37t-48.5 23l102 40q47 -19 65.5 -44t18.5 -52q0 -47 -43.5 -78.5t-124.5 -31.5z
" />
    <glyph glyph-name="circumflex" unicode="&#x2c6;" horiz-adv-x="467" 
d="M37 574l147 132q22 20 50 20q27 0 50 -20l146 -132h-128l-68 61l-68 -61h-129z" />
    <glyph glyph-name="caron" horiz-adv-x="467" 
d="M37 720h129l68 -61l68 61h128l-146 -133q-22 -19 -50 -19q-29 0 -50 19z" />
    <glyph glyph-name="breve" horiz-adv-x="373" 
d="M142 689q4 -16 19.5 -29.5t38.5 -13.5t39 13.5t20 29.5h85q-9 -51 -49.5 -85.5t-94.5 -34.5q-27 0 -51 9t-43 25.5t-31.5 38.5t-17.5 47h85z" />
    <glyph glyph-name="dotaccent" horiz-adv-x="201" 
d="M30 648q0 29 21 50t50 21t49.5 -21t20.5 -50t-20.5 -49.5t-49.5 -20.5t-50 20.5t-21 49.5z" />
    <glyph glyph-name="ring" unicode="&#x2da;" horiz-adv-x="295" 
d="M147 800q27 0 51.5 -10.5t42.5 -28.5t28.5 -42t10.5 -51t-10.5 -51.5t-28.5 -42.5t-42.5 -28.5t-51.5 -10.5t-51 10.5t-42 28.5t-28.5 42.5t-10.5 51.5t10.5 51t28.5 42t42 28.5t51 10.5zM100 668q0 -20 13.5 -33.5t33.5 -13.5t33.5 13.5t13.5 33.5t-13.5 33.5
t-33.5 13.5t-33.5 -13.5t-13.5 -33.5z" />
    <glyph glyph-name="ogonek" horiz-adv-x="295" 
d="M117 0h141q-17 -9 -34 -17t-30.5 -16.5t-22 -17t-8.5 -17.5q0 -18 14.5 -24t31.5 -6q15 0 29 3.5t20 5.5v-75q-11 -4 -35.5 -7t-43.5 -3q-40 0 -67.5 8.5t-44 21.5t-23.5 29t-7 30q0 35 25.5 55.5t54.5 29.5z" />
    <glyph glyph-name="tilde" unicode="&#x2dc;" horiz-adv-x="444" 
d="M162 689q24 0 40.5 -6.5t30 -14t26 -14t27.5 -6.5q14 0 23.5 5t19.5 16q18 20 36 20q26 0 37.5 -20t-1.5 -43q-16 -28 -47 -42.5t-62 -14.5q-36 0 -68 16q-18 9 -28.5 15t-23.5 7q-18 1 -30.5 -7.5t-15.5 -25.5h-89q9 55 40 85t85 30z" />
    <glyph glyph-name="hungarumlaut" horiz-adv-x="490" 
d="M37 574l109 133q2 1 11.5 10.5t31.5 9.5q24 0 40 -16t16 -40q0 -26 -19 -42l-75 -55h-114zM239 574l109 133q2 1 11.5 10.5t31.5 9.5q24 0 40 -16t16 -40q0 -26 -19 -42l-75 -55h-114z" />
    <glyph glyph-name="uni0326" horiz-adv-x="280" 
d="M24 -206q48 0 75 16t27 45q0 21 -19.5 37t-48.5 23l102 40q47 -19 65.5 -44t18.5 -52q0 -47 -43.5 -78.5t-124.5 -31.5z" />
    <glyph glyph-name="endash" unicode="&#x2013;" horiz-adv-x="508" 
d="M41 185v128h426v-128h-426z" />
    <glyph glyph-name="emdash" unicode="&#x2014;" horiz-adv-x="842" 
d="M41 185v128h760v-128h-760z" />
    <glyph glyph-name="quoteleft" unicode="&#x2018;" horiz-adv-x="277" 
d="M41 437q0 16 7 35l76 196h90l-53 -137q32 -8 53.5 -33.5t21.5 -60.5q0 -41 -28.5 -69.5t-68.5 -28.5q-41 0 -69.5 28.5t-28.5 69.5z" />
    <glyph glyph-name="quoteright" unicode="&#x2019;" horiz-adv-x="277" 
d="M139 680q40 0 68.5 -28.5t28.5 -69.5q0 -18 -6 -35l-77 -196h-90l53 136q-32 8 -53.5 34t-21.5 61q0 41 28.5 69.5t69.5 28.5z" />
    <glyph glyph-name="quotesinglbase" unicode="&#x201a;" horiz-adv-x="277" 
d="M139 184q40 0 68.5 -28.5t28.5 -69.5q0 -18 -6 -35l-77 -197h-90l53 137q-32 8 -53.5 34t-21.5 61q0 41 28.5 69.5t69.5 28.5z" />
    <glyph glyph-name="quotedblleft" unicode="&#x201c;" horiz-adv-x="498" 
d="M48 472l76 196h90l-53 -137q32 -8 53.5 -33.5t21.5 -60.5q0 -41 -28.5 -69.5t-68.5 -28.5q-41 0 -69.5 28.5t-28.5 69.5q0 16 7 35zM270 472l75 196h91l-54 -137q32 -8 53.5 -33.5t21.5 -60.5q0 -41 -28 -69.5t-69 -28.5q-40 0 -68.5 28.5t-28.5 69.5q0 16 7 35z" />
    <glyph glyph-name="quotedblright" unicode="&#x201d;" horiz-adv-x="498" 
d="M41 582q0 41 28.5 69.5t69.5 28.5q40 0 68.5 -28.5t28.5 -69.5q0 -18 -6 -35l-77 -196h-90l53 136q-32 8 -53.5 34t-21.5 61zM263 582q0 41 28.5 69.5t68.5 28.5q41 0 69 -28.5t28 -69.5q0 -18 -6 -35l-77 -196h-89l53 136q-32 8 -53.5 34t-21.5 61z" />
    <glyph glyph-name="quotedblbase" unicode="&#x201e;" horiz-adv-x="498" 
d="M41 86q0 41 28.5 69.5t69.5 28.5q40 0 68.5 -28.5t28.5 -69.5q0 -18 -6 -35l-77 -197h-90l53 137q-32 8 -53.5 34t-21.5 61zM263 86q0 41 28.5 69.5t68.5 28.5q41 0 69 -28.5t28 -69.5q0 -18 -6 -35l-77 -197h-89l53 137q-32 8 -53.5 34t-21.5 61z" />
    <glyph glyph-name="dagger" unicode="&#x2020;" horiz-adv-x="594" 
d="M41 496h184v172h144v-172h184v-116h-184v-380h-144v380h-184v116z" />
    <glyph glyph-name="daggerdbl" unicode="&#x2021;" horiz-adv-x="594" 
d="M41 173v115h184v92h-184v116h184v172h144v-172h184v-116h-184v-92h184v-115h-184v-173h-144v173h-184z" />
    <glyph glyph-name="bullet" unicode="&#x2022;" horiz-adv-x="438" 
d="M53 254q0 35 13 65t35.5 52.5t53 35.5t64.5 13q35 0 65 -13t52.5 -35.5t35.5 -52.5t13 -65q0 -34 -13 -64.5t-35.5 -53t-52.5 -35.5t-65 -13q-34 0 -64.5 13t-53 35.5t-35.5 53t-13 64.5z" />
    <glyph glyph-name="ellipsis" unicode="&#x2026;" horiz-adv-x="803" 
d="M567 86q0 41 28.5 69.5t69.5 28.5t69 -28.5t28 -69.5t-28 -69.5t-69 -28.5t-69.5 28.5t-28.5 69.5zM41 86q0 41 28.5 69.5t69.5 28.5q40 0 68.5 -28.5t28.5 -69.5t-28.5 -69.5t-68.5 -28.5q-41 0 -69.5 28.5t-28.5 69.5zM305 86q0 41 27.5 69.5t68.5 28.5t69.5 -28.5
t28.5 -69.5t-28.5 -69.5t-69.5 -28.5t-68.5 28.5t-27.5 69.5z" />
    <glyph glyph-name="perthousand" unicode="&#x2030;" horiz-adv-x="1440" 
d="M773 382q41 0 77 -15.5t62.5 -42t42 -62t15.5 -76.5t-15.5 -77t-42 -63t-62.5 -42.5t-77 -15.5t-77 15.5t-62.5 42.5t-42 63t-15.5 77t15.5 76.5t42 62t62.5 42t77 15.5zM1005 186q0 41 15.5 76.5t42 62t62.5 42t77 15.5t77 -15.5t62.5 -42t42 -62t15.5 -76.5t-15.5 -77
t-42 -63t-62.5 -42.5t-77 -15.5t-77 15.5t-62.5 42.5t-42 63t-15.5 77zM238 680q41 0 76.5 -15.5t62.5 -42t42.5 -62.5t15.5 -77t-15.5 -77t-42.5 -62.5t-62.5 -42t-76.5 -15.5t-77 15.5t-62.5 42t-42 62.5t-15.5 77t15.5 77t42 62.5t62.5 42t77 15.5zM676 668h127
l-468 -668h-126zM694 186q0 -33 23.5 -56t55.5 -23t55.5 23t23.5 56q0 32 -23.5 55t-55.5 23t-55.5 -23t-23.5 -55zM1202 107q32 0 55 23t23 56q0 32 -23 55t-55 23q-33 0 -56 -23t-23 -55q0 -33 23 -56t56 -23zM160 483q0 -33 23 -56t55 -23q33 0 56 23t23 56q0 32 -23 55
t-56 23q-32 0 -55 -23t-23 -55z" />
    <glyph glyph-name="guilsinglleft" unicode="&#x2039;" horiz-adv-x="404" 
d="M189 40l-148 210l148 211h173l-148 -211l149 -210h-174z" />
    <glyph glyph-name="guilsinglright" unicode="&#x203a;" horiz-adv-x="404" 
d="M41 40l150 209l-149 211h174l147 -211l-147 -209h-175z" />
    <glyph glyph-name="fraction" unicode="&#x2044;" horiz-adv-x="624" 
d="M609 668l-467 -668h-127l468 668h126z" />
    <glyph glyph-name="Euro" unicode="&#x20ac;" horiz-adv-x="728" 
d="M81 440h60q26 112 103 176t192 64q86 0 149.5 -42t98.5 -113l-129 -47q-20 38 -53.5 55t-70.5 17q-45 0 -80 -28.5t-53 -81.5h186l-41 -74h-160q-1 -8 -1.5 -16t-0.5 -16t0.5 -15t0.5 -14h127l-40 -74h-73q18 -56 54 -84.5t83 -28.5q35 0 70.5 15t55.5 56l128 -47
q-36 -72 -102 -113t-153 -41q-117 0 -192.5 64t-99.5 179h-98l40 74h49v61h-90z" />
    <glyph glyph-name="minus" unicode="&#x2212;" horiz-adv-x="594" 
d="M41 184v128h512v-128h-512z" />
    <glyph glyph-name="uni2215" unicode="&#x2215;" horiz-adv-x="651" 
d="M636 668l-468 -668h-153l468 668h153z" />
    <glyph glyph-name="grave.case" horiz-adv-x="249" 
d="M-20 829q0 22 17 39t39 17q21 0 38 -15l5.5 -6t14.5 -16t20 -22.5t23 -25.5q27 -30 62 -69h-125l-74 55q-10 10 -15 19.5t-5 23.5z" />
    <glyph glyph-name="acute.case" horiz-adv-x="199" 
d="M44 731q33 37 60 67q11 13 21.5 24.5t18.5 21.5q10 11 19 21l5 5q15 15 38 15t39.5 -16.5t16.5 -39.5q0 -24 -19 -43l-74 -55h-125z" />
    <glyph glyph-name="circumflex.case" horiz-adv-x="395" 
d="M148 864q10 8 22.5 13.5t26.5 5.5q28 0 49 -19l148 -133h-129l-68 61l-67 -61h-129z" />
    <glyph glyph-name="dieresis.case" horiz-adv-x="366" 
d="M16 796q0 29 21 50t50 21t49.5 -21t20.5 -50t-20.5 -49.5t-49.5 -20.5t-50 20.5t-21 49.5zM210 796q0 29 21 50t50 21t49 -21t20 -50t-20 -49.5t-49 -20.5t-50 20.5t-21 49.5z" />
    <glyph glyph-name="caron.case" horiz-adv-x="395" 
d="M1 877h129l68 -61l68 61h128l-146 -133q-22 -19 -50 -19q-29 0 -50 19z" />
    <glyph glyph-name="ring.case" horiz-adv-x="372" 
d="M186 861q27 0 51.5 -10.5t42.5 -28.5t28.5 -42t10.5 -51t-10.5 -51.5t-28.5 -42.5t-42.5 -28.5t-51.5 -10.5t-51 10.5t-42 28.5t-28.5 42.5t-10.5 51.5t10.5 51t28.5 42t42 28.5t51 10.5zM139 729q0 -20 13.5 -33.5t33.5 -13.5t33.5 13.5t13.5 33.5t-13.5 33.5
t-33.5 13.5t-33.5 -13.5t-13.5 -33.5z" />
    <glyph glyph-name="macron.case" horiz-adv-x="348" 
d="M24 747v98h299v-98h-299z" />
    <glyph glyph-name="breve.case" horiz-adv-x="330" 
d="M111 851q4 -16 19.5 -29.5t38.5 -13.5t39 13.5t20 29.5h85q-9 -51 -49.5 -85.5t-94.5 -34.5q-27 0 -51 9t-43 25.5t-31.5 38.5t-17.5 47h85z" />
    <glyph glyph-name="dotaccent.case" horiz-adv-x="345" 
d="M105 796q0 29 21 50t50 21t49.5 -21t20.5 -50t-20.5 -49.5t-49.5 -20.5t-50 20.5t-21 49.5z" />
    <glyph glyph-name="tilde.case" horiz-adv-x="366" 
d="M123 849q24 0 40.5 -6.5t30 -14t26 -14t27.5 -6.5q14 0 23.5 5t19.5 16q18 20 36 20q26 0 37.5 -20t-1.5 -43q-16 -28 -47 -42.5t-62 -14.5q-36 0 -68 16q-18 9 -28.5 15t-23.5 7q-18 1 -30.5 -7.5t-15.5 -25.5h-89q9 55 40 85t85 30z" />
    <glyph glyph-name="hungarumlaut.case" horiz-adv-x="433" 
d="M9 746l109 133q2 1 11.5 10.5t31.5 9.5q24 0 40 -16t16 -40q0 -26 -19 -42l-75 -55h-114zM211 746l109 133q2 1 11.5 10.5t31.5 9.5q24 0 40 -16t16 -40q0 -26 -19 -42l-75 -55h-114z" />
    <glyph glyph-name="ogonek.case" horiz-adv-x="263" 
d="M113 0h141q-15 -2 -31.5 -8t-30.5 -15t-23.5 -20.5t-9.5 -24.5q0 -18 14.5 -24t31.5 -6q15 0 29 3.5t20 5.5v-75q-11 -4 -35.5 -7t-43.5 -3q-40 0 -67.5 8.5t-44 21.5t-23.5 29t-7 30q0 35 25.5 55.5t54.5 29.5z" />
    <glyph glyph-name="caron.salt" horiz-adv-x="205" 
d="M64 641q4 23 21.5 35t34.5 12q26 0 40.5 -18.5t14.5 -38.5q0 -9 -3 -17l-52 -118h-80z" />
    </font>
</defs>
</svg>
